Сегодня идет свободное скачивание без начисления Download

По ту сторону / Beyond / Сезон: 1 / Серии: 1-5 из 10 (Стив Эделсон, Ник Копус, Сэм Хилл) [2017, США, фантастика, детектив, WEBRip 720p] MVO (Jaskier) + Original

Ответить на тему
 
Автор
Сообщение

Omen ®

Стаж: 5 лет 11 месяцев

Сообщений: 184329

Торрент-статистика

Пост 14-Янв-2017 01:00

[Цитировать]

По ту сторону / Beyond- Оригинальное название: Beyond
Русское название: По ту сторону
Год выпуска: 2017
Страна: США
Жанр: фантастика, детектив
Продолжительность: ~00:45:00 мин-Перевод: Профессиональный (многоголосый закадровый) Jaskier
Субтитры: Есть (Английские)-Режиссёр: Стив Эделсон, Ник Копус, Сэм Хилл-В ролях: Джордан Кэллоуэй, Дилан Гвин, Роми Роузмонт, Джонатан Уайтселл, Баркели Даффилд, Майкл МакГрэйди, Джефф Пьер, Чад Виллетт, Эмилия Баранак, Джеки Лаи-Описание: Убегая на своем мотоцикле от хулиганов, двенадцатилетний Холден (Дилан Шмид) попадает в автокатастрофу, отправившую мальчишку в длительную кому. В себя парень (Баркели Даффилд) приходит только через двенадцать лет и моментально становится местной достопримечательностью. Однако не все желают познакомиться с проспавшим полжизни молодым человеком из праздного любопытства, очень скоро Холден замечает, что за ним пристально следят какие-то мрачные люди. С помощью внезапно появившейся подруги молодой человек начинает вспоминать, что во время своего бессознательного состояния он не просто был в «отключке», его разум «путешествовал» в пограничный мир между жизнью и смертью в рамках чьего-то зловещего эксперимента. Теперь, вернувшийся с «той стороны», молодой человек нужен для продолжения опытов двум противоборствующим группировкам исследователей.-Сэмпл-Качество: WEBRip 720p
Формат: MKV
Видео кодек: AVC
Аудио кодек: AC3, E-AC3
Видео: 1280x720 (16:9), 23.976 fps, ~4935kbps ~0.223 bit/pixel-Аудио 1: Dolby AC3 48000Hz 6ch 384Kbps Русский
Аудио 2: Dolby E-AC3 48000Hz 6ch 640Kbps Оригинал (Английский)-Реклама: Присутствует звуковая (два раза в начале и конце по 12 сек.)-

MediaInfo

Код:
General
Unique ID                   : 199119476794246885468514463586097729105 (0x95CD042B606F84A080A27B45CB2A8E51)
Complete name               : X:\HD\Beyond. Season 1 (WEBRip l 720p l Jaskier)\Beyond.S01E01.Pilot.720p.AMZN.WEBRip.DD5.1.x264-Jaskier.mkv
Format                      : Matroska
Format version              : Version 2
File size                   : 1.83 GiB
Duration                    : 43mn 9s
Overall bit rate            : 6 066 Kbps
Encoded date                : UTC 2017-01-13 01:47:00
Writing application         : mkvmerge v5.4.0 ('Piper') built on Mar 10 2012 13:34:39
Writing library             : libebml v1.2.3 + libmatroska v1.3.0
DURATION                    : 00:42:32.670000000
NUMBER_OF_FRAMES            : 696
NUMBER_OF_BYTES             : 18563
_STATISTICS_WRITING_APP     : mkvmerge v8.1.0 ('Psychedelic Postcard') 32bit
_STATISTICS_WRITING_DATE_UT : 2017-01-03 18:21:26
_STATISTICS_TAGS            : BPS DURATION NUMBER_OF_FRAMES NUMBER_OF_BYTES
Video
ID                          : 1
Format                      : AVC
Format/Info                 : Advanced Video Codec
Format profile              : High@L4.1
Format settings, CABAC      : Yes
Format settings, ReFrames   : 9 frames
Codec ID                    : V_MPEG4/ISO/AVC
Duration                    : 43mn 9s
Bit rate                    : 4 921 Kbps
Width                       : 1 280 pixels
Height                      : 720 pixels
Display aspect ratio        : 16:9
Frame rate mode             : Constant
Frame rate                  : 23.976 fps
Color space                 : YUV
Chroma subsampling          : 4:2:0
Bit depth                   : 8 bits
Scan type                   : Progressive
Bits/(Pixel*Frame)          : 0.223
Stream size                 : 1.48 GiB (81%)
Title                       : 1. Pilot
Writing library             : x264 core 148 r2721+55 e19946b t_mod_Custom [8-bit@all X86_64]
Encoding settings           : cabac=1 / ref=9 / deblock=1:-3:-3 / analyse=0x3:0x133 / me=umh / subme=10 / psy=1 / fade_compensate=0.00 / psy_rd=1.00:0.00 / mixed_ref=1 / me_range=24 / chroma_me=1 / trellis=2 / 8x8dct=1 / cqm=0 / deadzone=21,11 / fast_pskip=0 / chroma_qp_offset=-2 / threads=8 / lookahead_threads=1 / sliced_threads=0 / nr=0 / decimate=0 / interlaced=0 / bluray_compat=0 / constrained_intra=0 / fgo=0 / bframes=9 / b_pyramid=2 / b_adapt=2 / b_bias=0 / direct=3 / weightb=1 / open_gop=0 / weightp=2 / keyint=250 / keyint_min=23 / scenecut=40 / intra_refresh=0 / rc_lookahead=60 / rc=crf / mbtree=0 / crf=16.0000 / qcomp=0.60 / qpmin=0:0:0 / qpmax=69:69:69 / qpstep=4 / vbv_maxrate=62500 / vbv_bufsize=78125 / crf_max=0.0 / nal_hrd=none / filler=0 / ip_ratio=1.40 / pb_ratio=1.30 / aq=3:0.70 / aq-sensitivity=10.00 / aq-factor=1.00:1.00:1.00 / aq2=0 / aq3=0
Language                    : English
Default                     : Yes
Forced                      : No
DURATION                    : 00:43:09.504000000
NUMBER_OF_FRAMES            : 62086
NUMBER_OF_BYTES             : 1631492588
_STATISTICS_WRITING_APP     : mkvmerge v8.1.0 ('Psychedelic Postcard') 32bit
_STATISTICS_WRITING_DATE_UT : 2017-01-03 18:21:26
_STATISTICS_TAGS            : BPS DURATION NUMBER_OF_FRAMES NUMBER_OF_BYTES
Audio #1
ID                          : 2
Format                      : AC-3
Format/Info                 : Audio Coding 3
Mode extension              : CM (complete main)
Format settings, Endianness : Big
Codec ID                    : A_AC3
Duration                    : 43mn 9s
Bit rate mode               : Constant
Bit rate                    : 384 Kbps
Channel(s)                  : 6 channels
Channel positions           : Front: L C R, Side: L R, LFE
Sampling rate               : 48.0 KHz
Compression mode            : Lossy
Stream size                 : 119 MiB (6%)
Language                    : Russian
Default                     : Yes
Forced                      : No
Audio #2
ID                          : 3
Format                      : E-AC-3
Format/Info                 : Audio Coding 3
Format settings, Endianness : Big
Codec ID                    : A_EAC3
Duration                    : 43mn 9s
Bit rate mode               : Constant
Bit rate                    : 640 Kbps
Channel(s)                  : 6 channels
Channel positions           : Front: L C R, Side: L R, LFE
Sampling rate               : 48.0 KHz
Compression mode            : Lossy
Stream size                 : 198 MiB (11%)
Language                    : English
Default                     : No
Forced                      : No
Text
ID                          : 4
Format                      : UTF-8
Codec ID                    : S_TEXT/UTF8
Codec ID/Info               : UTF-8 Plain Text
Language                    : English
Default                     : No
Forced                      : No

Скриншоты

Вне форума [Профиль] [ЛС]
Показать сообщения:    
Ответить на тему

Текущее время: Сегодня 12:48

Часовой пояс: GMT + 3



Вы не можете начинать темы
Вы не можете отвечать на сообщения
Вы не можете редактировать свои сообщения
Вы не можете удалять свои сообщения
Вы не можете голосовать в опросах
Вы не можете прикреплять файлы к сообщениям
Вы не можете скачивать файлы