Сегодня идет свободное скачивание без начисления Download

Гримм / Grimm / Сезон: 6 / Серия: 1 из 13 (Норберто Барба) [2016, Великобритания, США, ужасы, фэнтези, драма, детектив, WEB-DL 1080p] MVO (LostFilm) Original + Eng Subs

Ответить на тему
 
Автор
Сообщение

Omen ®

Стаж: 5 лет 6 месяцев

Сообщений: 186946

Торрент-статистика

Пост 11-Янв-2017 01:00

[Цитировать]

Гримм / Grimm Год выпуска: 2016
Страна: США
Жанр: ужасы, фэнтези, драма, детектив
Продолжительность: ~00:45:00
Перевод: Профессиональный (многоголосый закадровый) LostFilm
Режиссёр: Норберто Барба
В ролях: Дэвид Джунтоли (Ник Бёркхардт), Рассел Хорнсби (Хэнк Гриффин), Битси Таллоч (Джульетта Сильвертон), Сайлас Уэйр Митчелл (Эдди Монро), Регги Ли (сержант Ву), Саша Ройз (капитан Шон Ренард), Мэри Элизабет Мастрантонио (Келли Бёркхардт), Кейт Бертон (Мари Кесслер).
Описание: Ник Бёркхардт - детектив отдела по расследованию убийств из Портленда. Волею судьбы он также является одним из последних потомков семейства Гримм, члены которого из века в век занимаются истреблением сверхъестественных монстров, живущих в мире людей.
Ник, как и все его предки, способен видеть истинную сущность нечисти, под какой бы маской она не пряталась.
Узнав о своей судьбе, Ник принимает «вечный бой» против потустороннего зла, и теперь должен защищать от него людей.
В ходе своих расследований детектив Бёркхарт приобретает союзников в лице своей девушки, напарника Хэнка Гриффина, а также «перевоспитанного» потрошителя Эдди Монро.

Качество: WEB-DL 1080p
Формат: MKV
Видео: H.264/AVC, 1920x1080 (16:9), ~5195 kbps
Аудио: AC3, 384 kbps, 2 ch, 48 kHz [Rus]
Аудио 2:AC3, 384 kbps, 6 ch, 48 kHz [Eng]
Субтитры: английские

-

MediaInfo

Общее
Уникальный идентификатор : 205935497006932135050420828562843826251 (0x9AEDBBE9605E521FBB9E3F70138CF84B)
Полное имя : D:\Гримм (сезон 6) (2017) WEB-DL 1080p - LostFilm\Grimm.S06E01.WEB-DL1080p.Rus.Eng.DV.LostFilm.mkv
Формат : Matroska
Версия формата : Version 4 / Version 2
Размер файла : 1,79 Гбайт
Продолжительность : 42 м. 59 с.
Общий поток : 5966 Кбит/сек
Название фильма : Grimm.S06E01.WEB-DL1080p.Rus.Eng.DV.LostFilm
Дата кодирования : UTC 2017-01-09 21:28:29
Программа кодирования : mkvmerge v8.2.0 ('World of Adventure') 64bit
Библиотека кодирования : libebml v1.3.1 + libmatroska v1.4.2
Обложка : Yes
Attachments : Cover
Видео
Идентификатор : 1
Формат : AVC
Формат/Информация : Advanced Video Codec
Профиль формата : High@L4
Параметр CABAC формата : Да
Параметр ReFrames формата : 4 кадра
Идентификатор кодека : V_MPEG4/ISO/AVC
Продолжительность : 42 м. 59 с.
Битрейт : 5195 Кбит/сек
Ширина : 1920 пикселей
Высота : 1080 пикселей
Соотношение сторон : 16:9
Режим частоты кадров : Постоянный
Частота кадров : 23,976 (24000/1001) кадра/сек
Цветовое пространство : YUV
Субдискретизация насыщенности : 4:2:0
Битовая глубина : 8 бит
Тип развёртки : Прогрессивная
Бит/(Пиксели*Кадры) : 0.104
Размер потока : 1,56 Гбайт (87%)
Язык : English
Default : Да
Forced : Нет
Цветовой диапазон : Limited
Основные цвета : BT.709
Характеристики трансфера : BT.709
Коэффициенты матрицы : BT.709
Аудио #1
Идентификатор : 2
Формат : AC-3
Формат/Информация : Audio Coding 3
Расширение режима : CM (complete main)
Параметр Endianness формата : Big
Идентификатор кодека : A_AC3
Продолжительность : 42 м. 59 с.
Вид битрейта : Постоянный
Битрейт : 384 Кбит/сек
Каналы : 2 канала
Расположение каналов : Front: L R
Частота : 48,0 КГц
Частота кадров : 31,250 кадров/сек (1536 spf)
Битовая глубина : 16 бит
Метод сжатия : С потерями
Размер потока : 118 Мбайт (6%)
Заголовок : LostFilm
Язык : Russian
Default : Да
Forced : Нет
Аудио #2
Идентификатор : 3
Формат : AC-3
Формат/Информация : Audio Coding 3
Расширение режима : CM (complete main)
Параметр Endianness формата : Big
Идентификатор кодека : A_AC3
Продолжительность : 42 м. 59 с.
Вид битрейта : Постоянный
Битрейт : 384 Кбит/сек
Каналы : 6 каналов
Расположение каналов : Front: L C R, Side: L R, LFE
Частота : 48,0 КГц
Частота кадров : 31,250 кадров/сек (1536 spf)
Битовая глубина : 16 бит
Метод сжатия : С потерями
Размер потока : 118 Мбайт (6%)
Язык : English
Default : Нет
Forced : Нет
Текст
Идентификатор : 4
Формат : UTF-8
Идентификатор кодека : S_TEXT/UTF8
Идентификатор кодека/Информация : UTF-8 Plain Text
Продолжительность : 42 м. 15 с.
Битрейт : 80 бит/сек
Count of elements : 800
Размер потока : 25,0 Кбайт (0%)
Язык : English
Default : Нет
Forced : Нет

Скриншоты

Вне форума [Профиль] [ЛС]

Garry36

Пол:

Стаж: 5 лет 3 месяца

Сообщений: 12

Откуда: Украина,Донецк

Торрент-статистика

Пост 11-Янв-2017 11:08 (спустя 10 часов)

[Цитировать]

Ну на конец-то!!! Спасибо большое!!!

_________________
Вне форума [Профиль] [ЛС]
Показать сообщения:    
Ответить на тему

Текущее время: Сегодня 02:14

Часовой пояс: GMT + 3



Вы не можете начинать темы
Вы не можете отвечать на сообщения
Вы не можете редактировать свои сообщения
Вы не можете удалять свои сообщения
Вы не можете голосовать в опросах
Вы не можете прикреплять файлы к сообщениям
Вы не можете скачивать файлы