Сегодня идет свободное скачивание без начисления Download

Отец Браун / Патер Браун / Father Brown / Сезон: 5 / Серии: 1 из 15 (Пол Гибсон, Гэри Уильямс) [2017, Великобритания, Детектив, комедия, HDTVRip 720p] VO (DexterTV)

Ответить на тему
 
Автор
Сообщение

Omen ®

Стаж: 5 лет 11 месяцев

Сообщений: 184329

Торрент-статистика

Пост 07-Янв-2017 01:00

[Цитировать]

Отец Браун / Патер Браун / Father Brown Год выпуска: 2017
Страна: Великобритания
Жанр: Детектив, комедия
Продолжительность: ~ 00:53:00
Перевод: Любительский (одноголосый закадровый) DexterTV
Режиссёр: Пол Гибсон, Гэри Уильямс
В ролях: Марк Уильямс, Нэнси Кэролл, Сорча Кьюсак, Хьюго Спир, Алекс Прайс, Том Чамберс, Джон Лайт, Джон Бертон, Кит Осборн, Джеймс Расталл, Джастин Эдвардс, Дэвид Колдер, Кэти Льюнг и др.
Описание: Британский сериал снят по мотивам рассказов классика детективного жанра Гилберта Кейта Честертона. Отец Браун (Марк Уильямс) – священник с ничем не примечательной внешностью, но острым, как бритва, умом и поразительным умением разбираться в психологии человека. Именно эти качества помогают ему разбираться в преступлениях, которые время от времени происходят в одном тихом уголке Англии середины 1950-х годов.
Сэмпл: http://multi-up.com/1134412
Качество: HDTVRip 720p
Контейнер: MKV
Видео: AVC, 1280x720 (16:9), 29.970 fps, ~ 2394 Kbps, 0.087 bit/pixel
Аудио: MP3 2.0, 48 kHz, 192 kbps | Russian | DexterTV
Субтитры: отсутствуют
Реклама:
Отсутствует

MediaInfo

Format : Matroska
Format version : Version 4 / Version 2
File size : 997 MiB
Duration : 53mn 50s
Overall bit rate : 2 589 Kbps
Encoded date : UTC 2017-01-06 14:31:00
Writing application : mkvmerge v9.5.0 ('Quiet Fire') 64bit
Writing library : libebml v1.3.4 + libmatroska v1.4.5
Video
ID : 1
Format : AVC
Format/Info : Advanced Video Codec
Format profile : High@L5
Format settings, CABAC : Yes
Format settings, ReFrames : 11 frames
Codec ID : V_MPEG4/ISO/AVC
Duration : 53mn 50s
Bit rate : 2 394 Kbps
Width : 1 280 pixels
Height : 720 pixels
Display aspect ratio : 16:9
Frame rate mode : Constant
Frame rate : 29.970 (30000/1001) fps
Original frame rate : 29.970 (29970/1000) fps
Color space : YUV
Chroma subsampling : 4:2:0
Bit depth : 8 bits
Scan type : Progressive
Bits/(Pixel*Frame) : 0.087
Stream size : 922 MiB (93%)
Writing library : x264 core 144 r2525 40bb568
Encoding settings : cabac=1 / ref=11 / deblock=1:-2:-1 / analyse=0x3:0x133 / me=umh / subme=10 / psy=1 / psy_rd=1.00:0.20 / mixed_ref=1 / me_range=16 / chroma_me=1 / trellis=2 / 8x8dct=1 / cqm=0 / deadzone=21,11 / fast_pskip=0 / chroma_qp_offset=-3 / threads=6 / lookahead_threads=1 / sliced_threads=0 / nr=0 / decimate=0 / interlaced=0 / bluray_compat=0 / constrained_intra=0 / bframes=4 / b_pyramid=2 / b_adapt=2 / b_bias=0 / direct=3 / weightb=1 / open_gop=0 / weightp=2 / keyint=250 / keyint_min=25 / scenecut=40 / intra_refresh=0 / rc_lookahead=60 / rc=2pass / mbtree=1 / bitrate=2394 / ratetol=1.0 / qcomp=0.60 / qpmin=0 / qpmax=69 / qpstep=4 / cplxblur=20.0 / qblur=0.5 / ip_ratio=1.40 / aq=1:1.00
Default : Yes
Forced : No
Audio
ID : 2
Format : MPEG Audio
Format version : Version 1
Format profile : Layer 3
Mode : Joint stereo
Codec ID : A_MPEG/L3
Codec ID/Hint : MP3
Duration : 53mn 50s
Bit rate mode : Constant
Bit rate : 192 Kbps
Channel(s) : 2 channels
Sampling rate : 48.0 KHz
Frame rate : 41.667 fps (1152 spf)
Compression mode : Lossy
Stream size : 73.9 MiB (7%)
Default : Yes
Forced : No

Скриншоты

Вне форума [Профиль] [ЛС]
Показать сообщения:    
Ответить на тему

Текущее время: Сегодня 14:15

Часовой пояс: GMT + 3



Вы не можете начинать темы
Вы не можете отвечать на сообщения
Вы не можете редактировать свои сообщения
Вы не можете удалять свои сообщения
Вы не можете голосовать в опросах
Вы не можете прикреплять файлы к сообщениям
Вы не можете скачивать файлы