Сегодня идет свободное скачивание без начисления Download

Тайны любви / Любовь в Париже / Les mysteres de l\'amour / Сезон: 6 / Серии: 1-2 из 26 (Дан Окко / Dan Occo, Оливье Альтман / Olivier Altman) [2014, Франция, Мелодрама, HDTVRip 720p] MVO (Первый ТВЧ) + Original

Ответить на тему
 
Автор
Сообщение

Omen ®

Стаж: 5 лет 10 месяцев

Сообщений: 184329

Торрент-статистика

Пост 06-Янв-2017 01:00

[Цитировать]

Тайны любви / Любовь в Париже / Les mysteres de l'amourСезон: 6 / Серии: 1-2 из (26) Год выпуска: 2013-2014
Страна: Франция
Жанр: Мелодрама
Продолжительность: ~ 00:45:00 серия
Перевод: Профессиональный (многоголосый закадровый) Первый ТВЧ
Режиссёр: Дан Окко / Dan Occo , Оливье Альтман / Olivier Altman
В ролях: Патрик Пьюдеба (Николя), Лора Гибер (Бенедикт), Себастьен Рок (Кристиан), Лали Меньян (Лали), Филипп Вассёр (Жозе), Элен Ролле (Элен), Кароль Дешантр (Ингрид), Изабель Буис (Жанна), Маша Поликарпова (Ольга), Ельза Есну (Фанни), Серж Жискьер (Питер), Том Шахт (Джимми), Лакшан Абенаяк (Руди), Марион Югенин (Хлоя), Ришар Пигуа (Джон), Рошель Редфильд (Джоанна), Ев Перьё (Ев)
Описание: Продолжение сериалов "Элен и ребята", "Грёзы любви" и "Каникулы любви". Прошли годы, а компания друзей до сих пор вместе. Они вернулись в Париж, в их жизни уже нет места музыке и глупым посиделкам в кафе у Альфредо. Теперь у них все по-взрослому. И если для одних все складывается удачно, то другие не могут свести концы с концами. У Жозе с Бенедикт свой ресторанный бизнес, Николя занимается фотографией, Кристиан же пытается найти себя после разрыва с Джоанной. Много приключений самого разного свойства поджидает друзей в Париже.
Доп. информация: Исходник [1080i]
Сэмпл: https://yadi.sk/i/PDriNamR36ojWf
Качество: HDTVRip 720p
Контейнер: MKV
Видео: AVC, 1280x720 (16:9), 25.000 fps, 3000 kbps, 0.130 bpp
Аудио: русский, AC3, 48 kHz, 2 ch, 192 kbps
Аудио 2: французский, AC3, 48 kHz, 2 ch, 192 kbps
Субтитры: русские к оригинальной дорожке, отключаемые.
Реклама: Отсутствует.

Список серий

6х01 - Открытие
6х02 - Объяснения
6x03 - Параллельный мир, часть 1
6x04 - Параллельный мир, часть 2

MediaInfo

General
Unique ID : 174452372838646295957200638225761040665 (0x833E4E0C16509C47A44C85F4400DF919)
Complete name : E:\Тайны любви 6 сезон\Les.Mysteres.De.L'amour.6x01.rus.fr.HDTVRip.mkv
Format : Matroska
Format version : Version 4 / Version 2
File size : 1.02 GiB
Duration : 43 min
Overall bit rate : 3 387 kb/s
Movie name : 6x01 Открытие
Encoded date : UTC 2017-01-04 04:46:53
Writing application : mkvmerge v9.6.0 ('Slave To Your Mind') 32bit
Writing library : libebml v1.3.4 + libmatroska v1.4.5
Video
ID : 1
Format : AVC
Format/Info : Advanced Video Codec
Format profile : High@L4.1
Format settings, CABAC : Yes
Format settings, ReFrames : 9 frames
Codec ID : V_MPEG4/ISO/AVC
Duration : 43 min
Bit rate : 3 000 kb/s
Width : 1 280 pixels
Height : 720 pixels
Display aspect ratio : 16:9
Frame rate mode : Constant
Frame rate : 25.000 FPS
Color space : YUV
Chroma subsampling : 4:2:0
Bit depth : 8 bits
Scan type : Progressive
Bits/(Pixel*Frame) : 0.130
Stream size : 928 MiB (89%)
Writing library : x264 core 144 r2525 40bb568
Encoding settings : cabac=1 / ref=9 / deblock=1:-1:-1 / analyse=0x3:0x113 / me=umh / subme=9 / psy=1 / psy_rd=1.00:0.15 / mixed_ref=1 / me_range=24 / chroma_me=1 / trellis=1 / 8x8dct=1 / cqm=0 / deadzone=21,11 / fast_pskip=1 / chroma_qp_offset=-3 / threads=2 / lookahead_threads=1 / sliced_threads=0 / nr=0 / decimate=1 / interlaced=0 / bluray_compat=0 / constrained_intra=0 / bframes=10 / b_pyramid=2 / b_adapt=1 / b_bias=0 / direct=1 / weightb=1 / open_gop=0 / weightp=2 / keyint=250 / keyint_min=25 / scenecut=40 / intra_refresh=0 / rc_lookahead=40 / rc=2pass / mbtree=1 / bitrate=3000 / ratetol=1.0 / qcomp=0.60 / qpmin=0 / qpmax=69 / qpstep=4 / cplxblur=20.0 / qblur=0.5 / ip_ratio=1.40 / aq=1:1.00
Default : Yes
Forced : No
Audio #1
ID : 2
Format : AC-3
Format/Info : Audio Coding 3
Mode extension : CM (complete main)
Format settings, Endianness : Big
Codec ID : A_AC3
Duration : 43 min
Bit rate mode : Constant
Bit rate : 192 kb/s
Channel(s) : 2 channels
Channel positions : Front: L R
Sampling rate : 48.0 kHz
Frame rate : 31.250 FPS (1536 spf)
Compression mode : Lossy
Stream size : 59.4 MiB (6%)
Language : Russian
Default : Yes
Forced : No
Audio #2
ID : 3
Format : AC-3
Format/Info : Audio Coding 3
Mode extension : CM (complete main)
Format settings, Endianness : Big
Codec ID : A_AC3
Duration : 43 min
Bit rate mode : Constant
Bit rate : 192 kb/s
Channel(s) : 2 channels
Channel positions : Front: L R
Sampling rate : 48.0 kHz
Frame rate : 31.250 FPS (1536 spf)
Compression mode : Lossy
Stream size : 59.4 MiB (6%)
Language : French
Default : No
Forced : No
Text
ID : 4
Format : UTF-8
Codec ID : S_TEXT/UTF8
Codec ID/Info : UTF-8 Plain Text
Duration : 42 min
Bit rate : 150 b/s
Count of elements : 551
Stream size : 47.2 KiB (0%)
Language : Russian
Default : Yes
Forced : No

Скриншоты

Внимание! Раздача ведётся путём добавления новых серий

Внимание! Раздача ведётся путём добавления новых серий; при каждом добавлении создётся новый торрент. Чтобы начать докачку новой серии, пользователям необходимо сделать следующее:
(1) остановить скачивание,
(2) удалить старый торрент у себя из клиента (старые серии удалять не надо),
(3) скачать новый торрент и запустить его у себя в клиенте вместо старого, при этом указать клиенту путь в старую папку куда и должно происходить скачивание новых серий.
Ваш клиент при этом должен произвести хеширование (проверку) старой папки (если не производит сам - помогите ему сделать это), и будет докачивать только те серии которых у вас ещё нет. Старые серии при этом не удаляются, а продолжают раздаваться!
Eсли вы уже удалили старые серии, то предотвратить повторную закачку старых серий можно, отжав галочку в соответсвующих местах при запуске нового торрента. По возможности, желательно не удалять старые серии как можно дольше чтобы релизёр не столько продолжал раздавать старые серии, а смог сконцентрироваться на новых.
Вне форума [Профиль] [ЛС]
Похожие темы
Форум Тема Автор Торрент Отв. Посл. сообщение
./templates/default/images/folder_dl.gif Приключения и квесты Secrets of the Dark: The Flower of Shadow Collector\'s Edition / Тайны Тьмы: Цветок Теней. Коллекционное издание [P] [RUS / ENG] (2014) Omen
6 | 0

0 | 1419

19

2015-06-11 12:04
Omen Последнее
Показать сообщения:    
Ответить на тему

Текущее время: Сегодня 23:25

Часовой пояс: GMT + 3



Вы не можете начинать темы
Вы не можете отвечать на сообщения
Вы не можете редактировать свои сообщения
Вы не можете удалять свои сообщения
Вы не можете голосовать в опросах
Вы не можете прикреплять файлы к сообщениям
Вы не можете скачивать файлы