Сегодня идет свободное скачивание без начисления Download

Shut Eye / Ясновидец / Сезон: 1 / Серии: 1-5 из 10 (Йохан Ренк) [2016, США, драма, WEBRip 720p] MVO (AMS) + Original Eng

Ответить на тему
 
Автор
Сообщение

Omen ®

Стаж: 5 лет 9 месяцев

Сообщений: 184402

Торрент-статистика

Пост 06-Янв-2017 01:00

[Цитировать]

Shut Eye / Ясновидец
Год выпуска: 2016
Страна: США
Жанр: Драма
Продолжительность: ~ 00:45:00
Перевод: Профессиональный (многоголосый закадровый) (AMS)
Режиссёр: Йохан Ренк
В ролях: Джеффри Донован, Мел Харрис, Изабелла Росселлини, Энгус Сэмпсон, Дилан Шмид, КаДи Стрикленд, Дэвид Зайас, Эммануэль Шрики, Сьюзэн Миснер, Хавана Гуппи и другие
Описание:
Мрачно-комический взгляд на деятельность экстрасенсов и контролирующий их преступный синдикат. В центре внимания — рассерженный представитель этого мира, у которого внезапно появляются видения.
Сэмпл
Качество: WEBRip 720p
Контейнер: MKV
Видео: AVC, 1280x720 (16:9), 23.976 fps, ~ 2139 kbps, 0.097 bit/pixel
Аудио 1: Русский, AC3, 48 KHz, 2 channels, 320 kbps
Аудио 2: Английский, AAC, 48 KHz, 2 channels, ~320 kbps
Субтитры: Русские, Английские [Softsub SRT]
Реклама: Присутствует звуковая (два раза: в начале и конце по 12 сек)

MediaInfo

General
Unique ID : 250571307941471978531088547321543395334 (0xBC82474CE1C81E840F0A87CF51140806)
Complete name : /Shut.Eye.S01.2016.WEBRip.720p.AMS/Shut.Eye.S01E01.2016.WEBRip.720p.AMS.mkv
Format : Matroska
Format version : Version 4 / Version 2
File size : 836 MiB
Duration : 46mn 19s
Overall bit rate : 2 525 Kbps
Movie name : Shut Eye 1x01 [MVO AMS]
Encoded date : UTC 2017-01-04 19:26:23
Writing application : mkvmerge v8.2.0 ('World of Adventure') 64bit
Writing library : libebml v1.3.1 + libmatroska v1.4.2
Video
ID : 1
Format : AVC
Format/Info : Advanced Video Codec
Format profile : High@L3.1
Format settings, CABAC : Yes
Format settings, ReFrames : 5 frames
Codec ID : V_MPEG4/ISO/AVC
Duration : 46mn 19s
Bit rate : 2 139 Kbps
Width : 1 280 pixels
Height : 720 pixels
Display aspect ratio : 16:9
Frame rate mode : Constant
Frame rate : 23.976 (24000/1001) fps
Color space : YUV
Chroma subsampling : 4:2:0
Bit depth : 8 bits
Scan type : Progressive
Bits/(Pixel*Frame) : 0.097
Stream size : 709 MiB (85%)
Title : Shut Eye 1x01 [MVO AMS]
Language : English
Default : Yes
Forced : No
Audio #1
ID : 2
Format : AC-3
Format/Info : Audio Coding 3
Mode extension : CM (complete main)
Format settings, Endianness : Big
Codec ID : A_AC3
Duration : 46mn 19s
Bit rate mode : Constant
Bit rate : 320 Kbps
Channel(s) : 2 channels
Channel positions : Front: L R
Sampling rate : 48.0 KHz
Frame rate : 31.250 fps (1536 spf)
Compression mode : Lossy
Stream size : 106 MiB (13%)
Title : AMS
Language : Russian
Default : Yes
Forced : No
Audio #2
ID : 3
Format : AAC
Format/Info : Advanced Audio Codec
Format profile : HE-AAC / LC
Codec ID : A_AAC
Duration : 46mn 19s
Channel(s) : 2 channels
Channel positions : Front: L R
Sampling rate : 48.0 KHz / 24.0 KHz
Frame rate : 23.438 fps (1024 spf)
Compression mode : Lossy
Stream size : 21.2 MiB (3%)
Title : English
Language : English
Default : No
Forced : No

Скриншоты


Внимание! Раздача ведётся путём добавления новых серий

Внимание! Раздача ведётся путём добавления новых серий; при каждом добавлении создаётся новый торрент. Чтобы начать докачку новой серии, пользователям необходимо сделать следующее:
1) остановить скачивание,
2) удалить старый торрент у себя из клиента (старые серии удалять не надо),
3) скачать новый торрент и запустить его у себя в клиенте вместо старого, при этом указать клиенту путь в старую папку куда и должно происходить скачивание новых серий.
Ваш клиент при этом должен произвести хеширование (проверку) старой папки (если не производит сам - помогите ему сделать это), и будет докачивать только те серии которых у вас ещё нет. Старые серии при этом не удаляются, а продолжают раздаваться!
Eсли вы уже удалили старые серии, то предотвратить повторную закачку старых серий можно, отжав галочку в соответствующих местах при запуске нового торрента. По возможности, желательно не удалять старые серии как можно дольше чтобы релизёр не столько продолжал раздавать старые серии, а смог сконцентрироваться на новых.»[url=viewtopic.php?t=609808]Как закачать отдельный файл из торрента или докачать ранее пропущенные файлы торрента![/url]«
Вне форума [Профиль] [ЛС]
Показать сообщения:    
Ответить на тему

Текущее время: Сегодня 20:27

Часовой пояс: GMT + 3



Вы не можете начинать темы
Вы не можете отвечать на сообщения
Вы не можете редактировать свои сообщения
Вы не можете удалять свои сообщения
Вы не можете голосовать в опросах
Вы не можете прикреплять файлы к сообщениям
Вы не можете скачивать файлы