Сегодня идет свободное скачивание без начисления Download

Прокатили шоколадку на машине / Tiny Black Pussy for a Big Fat Burrito (BangBus) [2017 г., Amateur, Black, Blowjob, Cow Girl, Cum Shot, Doggystyle, Hardcore, Missionary, Riding, Shaved, Young, SiteRip, 480p] (Haylee Wynters)

Ответить на тему
 
Автор
Сообщение

XP1971 ®

Пол:

Стаж: 4 года 9 месяцев

Сообщений: 5293

Торрент-статистика

Пост 05-Янв-2017 12:17

[Цитировать]

-Прокатили шоколадку на машине

Tiny Black Pussy for a Big Fat Burrito
-- Страна: USA
Режиссер: N/A
Год выпуска: 2017 г.
Перевод: Отсутствует
Студия: BangBus / BangBros
Продолжительность: 00:51:03
Оригинальный аудиопоток: английский
Жанр: Amateur, Black, Blowjob, Brunette, Cow Girl,
Cum Shot, Doggystyle, Ebony, Facial, Hardcore, Missionary,
Riding, Shaved, Young-В ролях:
Haylee Wynters-Оригинальное описание:
In the video from the beginning all the classic:
- drop you, yeah well I really
-and if we are we give money, -what must be done,
yeah come on over, Oh, okay, what went
Then again, flashed socks and swimming trunks, lips trembling, the members suck, go...
Swept and threw the whore on the side. Classic American xxx movie.-Описание на русском:
В ролике с самого начала всё классически:
- подбросить тебя, - да нуна я сама уж,
- а если мы те денег дадим, - а чё делать нада,
- да садись не ссы, - ну ладн чё поехали,
- звать как, - Хэйли, - закрой хайло Хэйли и соси...
Далее опять же мелькают носки и плавки, губы трясуцца, члены сосутся, поехали...
Прокатились и бросили шлюху на обочине. Классика американскага xxx киноролика.-
Контейнер: MP4
Аудио кодек: AAC
Видео кодек: AVC
Cубтитры: отсутствуют
Качество видео: SiteRip
Стандарт разрешения: 480p
Аудио: Advanced Audio | 32.0 KHz | 2 ch | 48.0 Kbps
Видео: AVC | 852х480 | 1511 Кbps | 29.97 fps | 0.123 bit/pixel

Media Info

Код:
Общее
Полное имя : Haylee Wynters (Tiny Black Pussy for a Big Fat Burrito - 04.01.2017)_[/*spam*/].mp4
Формат : MPEG-4
Профиль формата : Base Media / Version 2
Идентификатор кодека : mp42
Размер файла : 570 Мбайт
Продолжительность : 51 м.
Режим общего битрейта : Переменный
Общий поток : 1561 Кбит/сек
Дата кодирования : UTC 2016-12-23 06:13:52
Дата пометки : UTC 2016-12-23 06:14:00
©TIM : 00;00;00;00
©TSC : 30000
©TSZ : 1001
Видео
Идентификатор : 1
Формат : AVC
Формат/Информация : Advanced Video Codec
Профиль формата : [email protected]/*  */
Параметр CABAC формата : Да
Параметр ReFrames формата : 3 кадра
Идентификатор кодека : avc1
Идентификатор кодека/Информация : Advanced Video Coding
Продолжительность : 51 м.
Битрейт : 1511 Кбит/сек
Ширина : 852 пикселя
Высота : 480 пикселей
Соотношение сторон : 16:9
Режим частоты кадров : Постоянный
Частота кадров : 29,970 кадров/сек
Стандарт вещания : NTSC
Цветовое пространство : YUV
Субдискретизация насыщенности : 4:2:0
Битовая глубина : 8 бит
Тип развёртки : Прогрессивная
Бит/(Пиксели*Кадры) : 0.123
Размер потока : 552 Мбайт (97%)
Язык : English
Дата кодирования : UTC 2016-12-23 06:13:52
Дата пометки : UTC 2016-12-23 06:13:52
Цветовой диапазон : Limited
Основные цвета : BT.601 NTSC
Характеристики трансфера : BT.601
Коэффициенты матрицы : BT.601
Аудио
Идентификатор : 2
Формат : AAC
Формат/Информация : Advanced Audio Codec
Профиль формата : LC
Идентификатор кодека : 40
Продолжительность : 51 м.
Продолжительность оригинала : 51 м.
Вид битрейта : Переменный
Битрейт : 48,0 Кбит/сек
Максимальный битрейт : 72,8 Кбит/сек
Каналы : 2 канала
Расположение каналов : Front: L R
Частота : 32,0 КГц
Метод сжатия : С потерями
Размер потока : 16,9 Мбайт (3%)
Размер потока оригинала : 16,9 Мбайт (3%)
Язык : English
Дата кодирования : UTC 2016-12-23 06:13:52
Дата пометки : UTC 2016-12-23 06:13:52

Скринлист

Скриншоты

                                                           

_________________
Вне форума [Профиль] [ЛС]
Похожие темы
Форум Тема Автор Торрент Отв. Посл. сообщение
./templates/default/images/folder_dl.gif Бизнес, Право, Экономика, Финансы Алексей Бабушкин | Эффективный нетворкинг. Как прокачать полезные связи для успеха в бизнесе и жизни (2017) [PDF, EPUB, FB2, MOBI, FB3] }{@R0N
1 | 0

0 | 2217

3

2017-01-14 13:54
}{@R0N Последнее
Показать сообщения:    
Ответить на тему

Текущее время: Сегодня 10:56

Часовой пояс: GMT + 3



Вы не можете начинать темы
Вы не можете отвечать на сообщения
Вы не можете редактировать свои сообщения
Вы не можете удалять свои сообщения
Вы не можете голосовать в опросах
Вы не можете прикреплять файлы к сообщениям
Вы не можете скачивать файлы