Сегодня идет свободное скачивание без начисления Download

Кейша Грей в кругу друзей / Keisha Grey Gets Her Ass Full Of Lex And A Face Full Of Icing From His Friends (Jules Jordan) [2017 г., Group sex, Anal Sex, Hardcore, SiteRip] (Keisha Grey)

Ответить на тему
 
Автор
Сообщение

XP1971 ®

Пол:

Стаж: 4 года 11 месяцев

Сообщений: 5756

Торрент-статистика

Пост 05-Янв-2017 12:09

[Цитировать]

-

Keisha Grey Gets Her Ass Full Of Lex
And A Face Full Of Icing From His Friends
-- Страна: USA
Режиссер: N/A
Студия: Jules Jordan
Год выпуска: 2017 г.
Перевод: Отсутствует
Продолжительность: 00:40:40
Жанр: Group sex, Anal Sex, Hardcore
Оригинальный аудиопоток: английский-В ролях:
Keisha Grey-Оригинальное описание:
Gray Kesha celebrates new year as usual on the penis, but rather many at once, because when they many members, it means warmer titted Cache in the winter here and took her to his home)-Описание на русском:
Серая Кеша встречает новый год как обычно на члене, а точнее на многих сразу, ведь когда членов много - значит теплее сисястой Кеше зимой, вот и взяли члены её к себе домой)-
Контейнер: MP4
Аудио кодек: AAC
Видео кодек: AVC
Cубтитры: отсутствуют
Качество видео: SiteRip
Аудио: Advanced Audio | 48.0 KHz | 2 ch | 128.0 Kbps
Видео: AVC | 640х360 | 1000 Кbps | 30.0 fps | 0.145 bit/pixel

Media Info

Код:
Общее
Полное имя : Keisha Grey Gets Her Ass Full Of Lex And A Face Full Of Icing From His Friends_[/*spam*/].mp4
Формат : MPEG-4
Профиль формата : Base Media
Идентификатор кодека : isom
Размер файла : 329 Мбайт
Продолжительность : 40 м.
Общий поток : 1129 Кбит/сек
Программа кодирования : Lavf57.48.103
Видео
Идентификатор : 1
Формат : AVC
Формат/Информация : Advanced Video Codec
Профиль формата : [email protected]/*  */
Параметр CABAC формата : Да
Параметр ReFrames формата : 4 кадра
Идентификатор кодека : avc1
Идентификатор кодека/Информация : Advanced Video Coding
Продолжительность : 40 м.
Битрейт : 1000 Кбит/сек
Ширина : 640 пикселей
Высота : 360 пикселей
Соотношение сторон : 16:9
Режим частоты кадров : Постоянный
Частота кадров : 30,000 кадров/сек
Цветовое пространство : YUV
Субдискретизация насыщенности : 4:2:0
Битовая глубина : 8 бит
Тип развёртки : Прогрессивная
Бит/(Пиксели*Кадры) : 0.145
Размер потока : 289 Мбайт (88%)
Библиотека кодирования : x264 core 148
Настройки программы : cabac=1 / ref=3 / deblock=1:0:0 / analyse=0x3:0x113 / me=hex / subme=7 / psy=1 / psy_rd=1.00:0.00 / mixed_ref=1 / me_range=16 / chroma_me=1 / trellis=1 / 8x8dct=1 / cqm=0 / deadzone=21,11 / fast_pskip=1 / chroma_qp_offset=-2 / threads=11 / lookahead_threads=1 / sliced_threads=0 / nr=0 / decimate=1 / interlaced=0 / bluray_compat=0 / constrained_intra=0 / bframes=3 / b_pyramid=2 / b_adapt=1 / b_bias=0 / direct=1 / weightb=1 / open_gop=0 / weightp=2 / keyint=300 / keyint_min=30 / scenecut=40 / intra_refresh=0 / rc_lookahead=40 / rc=abr / mbtree=1 / bitrate=1000 / ratetol=1.0 / qcomp=0.60 / qpmin=10 / qpmax=51 / qpstep=4 / ip_ratio=1.40 / aq=1:1.00
Аудио
Идентификатор : 2
Формат : AAC
Формат/Информация : Advanced Audio Codec
Профиль формата : LC
Идентификатор кодека : 40
Продолжительность : 40 м.
Duration_LastFrame : -3 мс.
Вид битрейта : Постоянный
Битрейт : 128 Кбит/сек
Каналы : 2 канала
Расположение каналов : Front: L R
Частота : 48,0 КГц
Метод сжатия : С потерями
Размер потока : 37,2 Мбайт (11%)
Прочее
Идентификатор : 3
Тип : Time code
Формат : QuickTime TC
Продолжительность : 40 м.
Временной код первого кадра : 01:00:00;00
Временной код, чередующийся : Да
Язык : English

Скринлист

Скриншоты

                                                     

_________________
Вне форума [Профиль] [ЛС]
Показать сообщения:    
Ответить на тему

Текущее время: Сегодня 01:02

Часовой пояс: GMT + 3



Вы не можете начинать темы
Вы не можете отвечать на сообщения
Вы не можете редактировать свои сообщения
Вы не можете удалять свои сообщения
Вы не можете голосовать в опросах
Вы не можете прикреплять файлы к сообщениям
Вы не можете скачивать файлы