Сегодня идет свободное скачивание без начисления Download

Человек в высоком замке / The Man in the High Castle / Сезон: 2 / Серии: 1-10 из 10 (Дэниэл Персивал, Карин Кусама, Брэд Андерсон) [2016, США, фантастика, триллер, драма, WEBRip 720p] MVO (AMS) + Original Eng + Subs (Rus, Eng)

Ответить на тему
 
Автор
Сообщение

Omen ®

Стаж: 5 лет 7 месяцев

Сообщений: 185427

Торрент-статистика

Пост 05-Янв-2017 01:01

[Цитировать]

Человек в высоком замке / The Man in the High Castle
Год выпуска: 2016
Страна: США
Жанр: Фантастика, триллер, драма
Продолжительность: ~ 00:55:00
Перевод: Профессиональный (многоголосый закадровый) (AMS)
Режиссёр: Дэниэл Персивал, Карин Кусама, Брэд Андерсон и другие
В ролях: Алекса Давалос, Руперт Эванс, Люк Клеинтенк, DJ Куоллс, Джоэль де ла Фуэнте, Кэри-Хироюки Тагава, Руфус Сьюэлл, Ли Шортен, Чела Хорсдэл, Арнольд Чун и другие
Описание:
Германия и Япония выиграли Вторую мировую. Америка разделена пополам между победителями, но, разумеется, спустя много лет после поражения (действие разворачивается в 1962-м) сознательные американцы организуют глубоко засекреченное подполье. Занимаются повстанцы в основном распространением странной кинохроники, на которой показана победа в войне союзнических войск. Именно с этими пленками в руках в нейтральную зону между двумя Америками отправляются Джо и Джулс — юноша и девушка, пробующие свои силы в борьбе с режимом.
Сэмпл
Качество: WEBRip 720p
Контейнер: MKV
Видео: AVC, 1280x720 (16:9), 23.976 fps, ~ 3100 kbps, 0.135 bit/pixel
Аудио 1: Русский, AC3, 48 KHz, 6 channels, 640 kbps
Аудио 2: Английский, AC3, 48 KHz, 6 channels, 640 kbps
Субтитры: Русские, Английские [Softsub SRT]
Реклама: Присутствует звуковая (два раза: в начале и конце по 12 сек)

MediaInfo

General
Unique ID : 4190059940979447489208689835795254453 (0x326F9E7A5C54848C35C470295338CB5)
Complete name : /The.Man.in.the.High.Castle.S02.2016.WEBRip.720p.AMS/The.Man.in.the.High.Castle.S02E01.2016.WEBRip.720p.AMS.mkv
Format : Matroska
Format version : Version 4 / Version 2
File size : 1.67 GiB
Duration : 57mn 4s
Overall bit rate : 4 189 Kbps
Movie name : The Man in the High Castle 2x01 [MVO AMS]
Encoded date : UTC 2016-12-26 14:50:10
Writing application : mkvmerge v8.2.0 ('World of Adventure') 64bit
Writing library : libebml v1.3.1 + libmatroska v1.4.2
Video
ID : 1
Format : AVC
Format/Info : Advanced Video Codec
Format profile : High@L4.1
Format settings, CABAC : Yes
Format settings, ReFrames : 9 frames
Codec ID : V_MPEG4/ISO/AVC
Duration : 57mn 4s
Bit rate : 2 907 Kbps
Width : 1 280 pixels
Height : 720 pixels
Display aspect ratio : 16:9
Frame rate mode : Constant
Frame rate : 23.976 (24000/1001) fps
Color space : YUV
Chroma subsampling : 4:2:0
Bit depth : 8 bits
Scan type : Progressive
Bits/(Pixel*Frame) : 0.132
Stream size : 1.16 GiB (69%)
Title : The Man in the High Castle 2x01 [MVO AMS]
Writing library : x264 core 148 r2744+8 b97ae06 / tmod bb0ae40 X86_64
Encoding settings : cabac=1 / ref=9 / deblock=1:-3:-3 / analyse=0x3:0x113 / me=umh / subme=10 / psy=1 / fade_compensate=0.00 / psy_rd=1.05:0.15 / mixed_ref=1 / me_range=48 / chroma_me=1 / trellis=2 / 8x8dct=1 / cqm=0 / deadzone=6,6 / fast_pskip=0 / chroma_qp_offset=-3 / threads=22 / lookahead_threads=3 / sliced_threads=0 / nr=0 / decimate=0 / interlaced=0 / bluray_compat=0 / constrained_intra=0 / fgo=0 / bframes=9 / b_pyramid=2 / b_adapt=2 / b_bias=0 / direct=3 / weightb=1 / open_gop=0 / weightp=2 / keyint=250 / keyint_min=23 / scenecut=40 / intra_refresh=0 / rc=crf / mbtree=0 / crf=18.0000 / qcomp=0.70 / qpmin=0:0:0 / qpmax=69:69:69 / qpstep=4 / ip_ratio=1.10 / pb_ratio=1.10 / aq=3:0.65 / aq-sensitivity=10.00 / aq-factor=1.00:1.00:1.00 / aq2=0 / aq3=0
Language : English
Default : Yes
Forced : No
Audio #1
ID : 2
Format : AC-3
Format/Info : Audio Coding 3
Mode extension : CM (complete main)
Format settings, Endianness : Big
Codec ID : A_AC3
Duration : 57mn 4s
Bit rate mode : Constant
Bit rate : 640 Kbps
Channel(s) : 6 channels
Channel positions : Front: L C R, Side: L R, LFE
Sampling rate : 48.0 KHz
Frame rate : 31.250 fps (1536 spf)
Compression mode : Lossy
Stream size : 261 MiB (15%)
Title : AMS
Language : Russian
Default : Yes
Forced : No
Audio #2
ID : 3
Format : E-AC-3
Format/Info : Audio Coding 3
Format settings, Endianness : Big
Codec ID : A_EAC3
Duration : 57mn 4s
Bit rate mode : Constant
Bit rate : 640 Kbps
Channel(s) : 6 channels
Channel positions : Front: L C R, Side: L R, LFE
Sampling rate : 48.0 KHz
Frame rate : 187.500 fps (256 spf)
Compression mode : Lossy
Stream size : 261 MiB (15%)
Title : English
Language : English
Default : No
Forced : No
Text #1
ID : 4
Format : UTF-8
Codec ID : S_TEXT/UTF8
Codec ID/Info : UTF-8 Plain Text
Duration : 54mn 29s
Bit rate : 67 bps
Count of elements : 608
Stream size : 27.0 KiB (0%)
Title : Russian Subs
Language : Russian
Default : No
Forced : No
Text #2
ID : 5
Format : UTF-8
Codec ID : S_TEXT/UTF8
Codec ID/Info : UTF-8 Plain Text
Duration : 53mn 27s
Bit rate : 42 bps
Count of elements : 637
Stream size : 16.8 KiB (0%)
Title : English
Language : English
Default : No
Forced : No
Text #3
ID : 6
Format : UTF-8
Codec ID : S_TEXT/UTF8
Codec ID/Info : UTF-8 Plain Text
Duration : 54mn 2s
Bit rate : 47 bps
Count of elements : 720
Stream size : 18.8 KiB (0%)
Title : English (SDH)
Language : English
Default : No
Forced : No

Скриншоты


Внимание! Раздача ведётся путём добавления новых серий

Внимание! Раздача ведётся путём добавления новых серий; при каждом добавлении создаётся новый торрент. Чтобы начать докачку новой серии, пользователям необходимо сделать следующее:
1) остановить скачивание,
2) удалить старый торрент у себя из клиента (старые серии удалять не надо),
3) скачать новый торрент и запустить его у себя в клиенте вместо старого, при этом указать клиенту путь в старую папку куда и должно происходить скачивание новых серий.
Ваш клиент при этом должен произвести хеширование (проверку) старой папки (если не производит сам - помогите ему сделать это), и будет докачивать только те серии которых у вас ещё нет. Старые серии при этом не удаляются, а продолжают раздаваться!
Eсли вы уже удалили старые серии, то предотвратить повторную закачку старых серий можно, отжав галочку в соответствующих местах при запуске нового торрента. По возможности, желательно не удалять старые серии как можно дольше чтобы релизёр не столько продолжал раздавать старые серии, а смог сконцентрироваться на новых.»[url=viewtopic.php?t=609808]Как закачать отдельный файл из торрента или докачать ранее пропущенные файлы торрента![/url]«
Вне форума [Профиль] [ЛС]
Похожие темы
Форум Тема Автор Торрент Отв. Посл. сообщение
./templates/default/images/folder_dl.gif Психология, Тренинг, Саморазвитие Мастера психологии. - Макклелланд Д. - Мотивация человека. [2007, PDF, RUS] Omen
1 | 0

0 | 573

4

2015-05-28 15:00
Omen Последнее
./templates/default/images/folder_dl.gif Обучающая и научно-популярная литература Бухаркин Пётр Евгеньевич - Н. М. КАРАМЗИН — ЧЕЛОВЕК И ПИСАТЕЛЬ — В ИСТОРИИ РУССКОЙ ЛИТЕРАТУРЫ [Иван Калинин, (ЛИ), 2016 г., 192 kbps, MP3] Omen
1 | 0

0 | 326

2

2016-03-06 21:04
Omen Последнее
./templates/default/images/folder_dl.gif Медицина и Здоровье Винсент Перез | Большой атлас анатомии человека (2013) [PDF] }{@R0N
1 | 0

0 | 2386

4

2017-02-03 21:08
}{@R0N Последнее
./templates/default/images/folder_dl.gif Фантастика, фэнтези, ужасы, мистика Василий Головачев | Черный человек (2018) [MP3] }{@R0N
1 | 0

0 | 201

6

2018-04-02 13:30
}{@R0N Последнее
Показать сообщения:    
Ответить на тему

Текущее время: Сегодня 14:37

Часовой пояс: GMT + 3



Вы не можете начинать темы
Вы не можете отвечать на сообщения
Вы не можете редактировать свои сообщения
Вы не можете удалять свои сообщения
Вы не можете голосовать в опросах
Вы не можете прикреплять файлы к сообщениям
Вы не можете скачивать файлы