Сегодня идет свободное скачивание без начисления Download

Жизнь в деталях / Life in Pieces / Сезон: 1 / Серии: 1-4 из 22 (Джейсон Уайнер) [2015, США, Комедия, WEB-DL 1080p] MVO (FoxLife) + Original

Ответить на тему
 
Автор
Сообщение

Omen ®

Стаж: 6 лет 1 месяц

Сообщений: 184308

Торрент-статистика

Пост 05-Янв-2017 01:00

[Цитировать]

Жизнь в деталях / Life in Pieces
Год выпуска: 2015
Страна: США
Жанр: Комедия
Продолжительность: ~00:22:00
Перевод: Профессиональный (многоголосый закадровый) FoxLife
Режиссёр: Джейсон Уайнер
В ролях: Колин Хэнкс, Джеймс Бролин, Бетси Брандт, Дайэнн Уист, Томас Садоски, Зои Листер Джонс, Жизелль Эйзенберг, Сьюзэн Парк, Дэн Баккедаль, Анжелика Кебрал
Описание: В центре сюжета - хроника жизни большой семьи, которая демонстрируется с точки зрения каждого персонажа и их версий происходящего.
Доп. информация:
Звук предоставил: Beer kolesik Drinkers и #Antisnl#
Подготовка видео: TaLi4
Постер: TaLi4
Что-то там с аудио делал: *барабанная дробь* халтурщик TaLi4
Сэмпл: http://multi-up.com/1133985 | https://cloud.mail.ru/public/JWiY/rfJCnRnHX
Качество: WEB-DL 1080p
Контейнер: MKV
Видео: AVC, 1920x1080 (16:9), 25 fps, ~5271 Kbps (0.101 bit/pixel)
Аудио #1: AC3, 48 KHz, 2 ch, 192 kbps | FoxLife |
Аудио #2: AC3, 48 KHz, 6 ch, 384 kbps | Оригинал |
Субтитры: отсутствуют
Реклама: Отсутствует

MediaInfo

General
Unique ID : 230275626826727394162330200706043352494 (0xAD3D78F6DCA4C7418BC7624AC2D415AE)
Complete name : C:\Users\Администратор\Desktop\Раздачи\Life in Pieces Season 1 1080p FoxLife\Life.in.Pieces.S01E01.Pilot.1080p.WEB-DL.FoxLife.mkv
Format : Matroska
Format version : Version 4 / Version 2
File size : 866 MiB
Duration : 20 min 28 s
Overall bit rate : 5 910 kb/s
Encoded date : UTC 2017-01-04 08:30:39
Writing application : mkvmerge v9.5.0 ('Quiet Fire') 64bit
Writing library : libebml v1.3.4 + libmatroska v1.4.5
Video
ID : 1
Format : AVC
Format/Info : Advanced Video Codec
Format profile : High@L4
Format settings, CABAC : Yes
Format settings, ReFrames : 4 frames
Codec ID : V_MPEG4/ISO/AVC
Duration : 20 min 28 s
Bit rate : 5 217 kb/s
Width : 1 920 pixels
Height : 1 080 pixels
Display aspect ratio : 16:9
Frame rate mode : Constant
Frame rate : 25.000 FPS
Color space : YUV
Chroma subsampling : 4:2:0
Bit depth : 8 bits
Scan type : Progressive
Bits/(Pixel*Frame) : 0.101
Stream size : 764 MiB (88%)
Language : English
Default : Yes
Forced : No
Color range : Limited
Color primaries : BT.709
Transfer characteristics : BT.709
Matrix coefficients : BT.709
Audio #1
ID : 2
Format : AC-3
Format/Info : Audio Coding 3
Mode extension : CM (complete main)
Format settings, Endianness : Big
Codec ID : A_AC3
Duration : 20 min 28 s
Bit rate mode : Constant
Bit rate : 192 kb/s
Channel(s) : 2 channels
Channel positions : Front: L R
Sampling rate : 48.0 kHz
Frame rate : 31.250 FPS (1536 spf)
Compression mode : Lossy
Stream size : 28.1 MiB (3%)
Language : Russian
Default : Yes
Forced : No
Audio #2
ID : 3
Format : AC-3
Format/Info : Audio Coding 3
Mode extension : CM (complete main)
Format settings, Endianness : Big
Codec ID : A_AC3
Duration : 20 min 28 s
Bit rate mode : Constant
Bit rate : 384 kb/s
Channel(s) : 6 channels
Channel positions : Front: L C R, Side: L R, LFE
Sampling rate : 48.0 kHz
Frame rate : 31.250 FPS (1536 spf)
Compression mode : Lossy
Stream size : 56.2 MiB (6%)
Language : English
Default : No
Forced : No

Скриншоты

Внимание! Раздача ведётся путём добавления новых серий

Внимание! Раздача ведётся путём добавления новых серий; при каждом добавлении создётся новый торрент. Чтобы начать докачку новой серии, пользователям необходимо сделать следующее:
(1) остановить скачивание,
(2) удалить старый торрент у себя из клиента (старые серии удалять не надо),
(3) скачать новый торрент и запустить его у себя в клиенте вместо старого, при этом указать клиенту путь в старую папку куда и должно происходить скачивание новых серий.
Ваш клиент при этом должен произвести хеширование (проверку) старой папки (если не производит сам - помогите ему сделать это), и будет докачивать только те серии которых у вас ещё нет. Старые серии при этом не удаляются, а продолжают раздаваться!
Eсли вы уже удалили старые серии, то предотвратить повторную закачку старых серий можно, отжав галочку в соответсвующих местах при запуске нового торрента. По возможности, желательно не удалять старые серии как можно дольше чтобы релизёр не столько продолжал раздавать старые серии, а смог сконцентрироваться на новых.
Вне форума [Профиль] [ЛС]
Похожие темы
Форум Тема Автор Торрент Отв. Посл. сообщение
./templates/default/images/folder_dl.gif Психология, Тренинг, Саморазвитие Алекс Лесли | ЖЖизнь без трусов (2011) [MP3] moralis
1 | 0

0 | 1425

9

2016-04-10 21:57
moralis Последнее
./templates/default/images/folder_dl.gif Философия, Религия, Эзотерика Universum - Вентер К. - Расшифрованная жизнь. Мой геном, моя жизнь [2015, FB2, RUS] Omen
1 | 0

0 | 631

0

2016-07-22 01:00
Omen Последнее
./templates/default/images/folder_dl.gif Психология, Тренинг, Саморазвитие Айше Берсел | Жизнь как конструктор. Выдели главное, убери лишнее и создай жизнь, которая тебя вдохновляет (2016) [PDF] }{@R0N
1 | 0

0 | 1162

5

2017-02-16 19:36
}{@R0N Последнее
./templates/default/images/folder_dl.gif Техническая и научно-популярная литература Радислав Гандапас | Полная Ж: жизнь как бизнес-проект (2018) [PDF] }{@R0N
1 | 0

0 | 1896

7

2017-12-24 22:45
}{@R0N Последнее
./templates/default/images/folder_dl.gif Психология, Тренинг, Саморазвитие Кристоф Андре | Искусство и медитация. 24 урока, которые день за днем преображают жизнь (2018) [FB2] }{@R0N
1 | 0

0 | 1672

11

2018-01-24 22:36
}{@R0N Последнее
./templates/default/images/folder_dl.gif Психология, Тренинг, Саморазвитие Уильям Макрейвен | Заправляй кровать. 10 простых правил, которые могут изменить твою жизнь и, возможно, весь мир (2018) [FB2] }{@R0N
2 | 0

0 | 2247

6

2018-02-11 21:32
}{@R0N Последнее
Показать сообщения:    
Ответить на тему

Текущее время: Сегодня 18:40

Часовой пояс: GMT + 3



Вы не можете начинать темы
Вы не можете отвечать на сообщения
Вы не можете редактировать свои сообщения
Вы не можете удалять свои сообщения
Вы не можете голосовать в опросах
Вы не можете прикреплять файлы к сообщениям
Вы не можете скачивать файлы