Сегодня идет свободное скачивание без начисления Download

Шерлок / Sherlock / Сезон: 4 / Серии: 1 из 3 (Пол МакГиган, Ник Харран, Коки Гидройч) [2017, Великобритания, триллер, драма, криминал, HDTV 1080i] Dub (Эй Би Видео по заказу Первого канала)

Ответить на тему
 
Автор
Сообщение

Omen ®

Стаж: 5 лет 6 месяцев

Сообщений: 186946

Торрент-статистика

Пост 03-Янв-2017 01:00

[Цитировать]

Шерлок / Sherlock
Год выпуска: 2017
Страна: Великобритания
Жанр: триллер, драма, криминал
Продолжительность: 1:28:23
Перевод: Профессиональный (дублированный) Эй Би Видео по заказу Первого канала
Режиссёр: Пол МакГиган, Ник Харран, Коки Гидройч
В ролях: Бенедикт Камбербэтч, Мартин Фриман, Уна Стаббс, Руперт Грейвз, Луиза Брили, Марк Гейтисс, Эндрю Скотт, Джонатан Арис, Аманда Аббингтон, Винетт Робинсон
Описание: Скотленд-Ярд занят расследованием загадочного дела, а вот Шерлока больше интересует одна, казалось бы, незначительная деталь: зачем кто-то планомерно уничтожает изображения бывшего премьер-министра Маргарет Тэтчер? Холмс пытается выяснить, чьих рук это дело - сумасшедшего, оказавшегося на свободе, или хладнокровного преступника. Есть еще одна головоломка для «мастера дедукции», разгадку которой стоит искать в прошлом Мэри Ватсон…
Доп. информация: Релиз взят с HDclub, файл мной никаким образом не модифицирован, все благодарности можете адресовать туда.
Сэмпл: https://yadi.sk/i/rLdei1Kn36RQSQ
Качество: HDTV 1080i
Контейнер: TS
Видео: AVC, 1920x1080, 16:9, 25.000 fps, 7864 Kbps
Аудио: Русский, MP2, 48.0 KHz, stereo, 192 Kbps
Субтитры: отсутствуют
Реклама:
На 0:10:12 рекламный баннер от первого канала (рекламируют собственный сайт на котором можно незабесплатно посмотреть серию). До этого никакой рекламы не обнаружено, но я ещё не досмотрел.

Список серий

01: The Six Thatchers / Шесть Тэтчер

MediaInfo

General
ID : 1 (0x1)
Complete name : Sherlock.S04E01.The.Six.Thatchers.1080i.HDTV.Rus.HDCLUB.ts
Format : MPEG-TS
File size : 5.23 GiB
Duration : 1h 28mn
Overall bit rate mode : Variable
Overall bit rate : 8 477 Kbps
Video
ID : 256 (0x100)
Menu ID : 294 (0x126)
Format : AVC
Format/Info : Advanced Video Codec
Format profile : High@L4.0
Format settings, CABAC : Yes
Format settings, ReFrames : 4 frames
Codec ID : 27
Duration : 1h 28mn
Bit rate : 7 864 Kbps
Width : 1 920 pixels
Height : 1 080 pixels
Display aspect ratio : 16:9
Frame rate : 25.000 fps
Color space : YUV
Chroma subsampling : 4:2:0
Bit depth : 8 bits
Scan type : MBAFF
Bits/(Pixel*Frame) : 0.152
Stream size : 4.86 GiB (93%)
Audio
ID : 257 (0x101)
Menu ID : 294 (0x126)
Format : MPEG Audio
Format version : Version 1
Format profile : Layer 2
Codec ID : 3
Duration : 1h 28mn
Bit rate mode : Constant
Bit rate : 192 Kbps
Channel(s) : 2 channels
Sampling rate : 48.0 KHz
Compression mode : Lossy
Delay relative to video : -40ms
Stream size : 121 MiB (2%)
Language : Russian

Скриншоты

Вне форума [Профиль] [ЛС]
Показать сообщения:    
Ответить на тему

Текущее время: Сегодня 21:38

Часовой пояс: GMT + 3



Вы не можете начинать темы
Вы не можете отвечать на сообщения
Вы не можете редактировать свои сообщения
Вы не можете удалять свои сообщения
Вы не можете голосовать в опросах
Вы не можете прикреплять файлы к сообщениям
Вы не можете скачивать файлы