Сегодня идет свободное скачивание без начисления Download

Лучше звоните Солу / Better Call Saul / Сезон: 1 / Серии: 1-10 из 10 (Адам Бернштейн, Лариса Кондрацки, Терри МакДонаф) [2015, США, драма, комедия, криминал, BDRip 1080p] MVO (Lostfilm) + MVO (Кравец-рекордс) + MVO (NewStudio) + DVO (Кубик в Кубе) +

Ответить на тему
 
Автор
Сообщение

Omen ®

Стаж: 5 лет 11 месяцев

Сообщений: 184329

Торрент-статистика

Пост 31-Дек-2016 01:00

[Цитировать]

Лучше звоните Солу / Better Call Saul
Год выпуска: 2015
Страна: США
Жанр: драма, комедия, криминал
Продолжительность: ~ 00:46:00
Перевод: Профессиональный (многоголосый закадровый) Lostfilm
Перевод 2: Профессиональный (многоголосый закадровый) Кравец-рекордс
Перевод 3: Профессиональный (многоголосый закадровый) NewStudio
Перевод 4: Профессиональный (двухголосый закадровый) Кубик в Кубе
Перевод 5: Авторский (одноголосый, закадровый) Чадов Михаил
Режиссёр: Адам Бернштейн, Лариса Кондрацки, Терри МакДонаф
В ролях: Боб Оденкёрк, Джонатан Бэнкс, Ри Сихорн, Майкл МакКин, Патрик Фабиан, Майкл Мэндо, Эйлин Фогарти, Стив Ларесэ, Джули Энн Эмери, Керри Кондон
Описание: История об испытаниях и невзгодах, которые приходится преодолеть Солу Гудману, адвокату по уголовным делам, в тот период, когда он пытается открыть свою собственную адвокатскую контору в Альбукерке, штат Нью-Мексико.
Доп. информация: Рип видео: DEFLATE, SHORTBREHD.
Рип звука: seregaanarhist.
Кравец-рекордс в 3,5 и 10 серии 2 канала.
В 1 и 2 серии LostFilm, NewStudio и Кубик в Кубе - 640 kbps
Сэмпл: http://sendfile.su/1294970
Качество: BDRip 1080p
Контейнер: MKV
Видео: С 1-3 серии: x264, 1920x1080p (16:9), 23.976 fps, 9195 kbps, 0.185 bit/pixel, с 4-10 серии: x264, 1920x1080p (16:9), 23.976 fps, 11200 kbps, 0.225 bit/pixel
Аудио: AC3, 48 KHz, 5.1, 640 kbps [RUS]
Аудио 2: AC3, 48 KHz, 5.1, 384 kbps [RUS]
Аудио 3: AC3, 48 KHz, 5.1, 640 kbps [RUS]
Аудио 4: AC3, 48 KHz, 5.1, 640 kbps [RUS]
Аудио 5: AC3, 48 KHz, 5.1, 640 kbps [RUS]
Аудио 6: AC3, 48 KHz, 5.1, 384 kbps [ENG]
Аудио 7: DTS, 48 KHz, 5.1, 1509 kbps [ENG]
Субтитры: Русские, английские (полные, SRT).
Реклама:
Отсутствует

Список серий

1. Уно / Uno
2. Михо / Mijo
3. Начо/ Nacho
4. Герой / Hero
5. Альпийский пастушок / Alpine Shepherd Boy
6. Легавые / Five-O
7. Бинго / Bingo
8. РИКО / RICO
9. Пименто / Pimento
10. Марко / Marco

MediaInfo

General
Unique ID : 178870874798411693058624975628499172921 (0x8691470360DE1AD9B060279498C03E39)
Complete name : D:\Downloads\Better.Call.Saul.S01.1080p.BluRay.X264\Better.Call.Saul.S01E01.1080p.BluRay.x264.mkv
Format : Matroska
Format version : Version 4 / Version 2
File size : 5.20 GiB
Duration : 53 min 5 s
Overall bit rate : 14.0 Mb/s
Encoded date : UTC 2016-12-29 18:24:49
Writing application : mkvmerge v9.7.1 ('Pandemonium') 64bit
Writing library : libebml v1.3.4 + libmatroska v1.4.5
Video
ID : 1
Format : AVC
Format/Info : Advanced Video Codec
Format profile : High@L4.1
Format settings, CABAC : Yes
Format settings, ReFrames : 4 frames
Codec ID : V_MPEG4/ISO/AVC
Duration : 53 min 5 s
Bit rate : 9 195 kb/s
Width : 1 920 pixels
Height : 1 080 pixels
Display aspect ratio : 16:9
Frame rate mode : Constant
Frame rate : 23.976 (24000/1001) FPS
Color space : YUV
Chroma subsampling : 4:2:0
Bit depth : 8 bits
Scan type : Progressive
Bits/(Pixel*Frame) : 0.185
Stream size : 3.41 GiB (66%)
Writing library : x264 core 148 r2579 73ae2d1
Encoding settings : cabac=1 / ref=4 / deblock=1:-3:-3 / analyse=0x3:0x113 / me=umh / subme=8 / psy=1 / psy_rd=1.00:0.00 / mixed_ref=1 / me_range=16 / chroma_me=1 / trellis=1 / 8x8dct=1 / cqm=0 / deadzone=21,11 / fast_pskip=1 / chroma_qp_offset=-2 / threads=12 / lookahead_threads=2 / sliced_threads=0 / nr=0 / decimate=1 / interlaced=0 / bluray_compat=0 / constrained_intra=0 / bframes=3 / b_pyramid=2 / b_adapt=2 / b_bias=0 / direct=3 / weightb=1 / open_gop=0 / weightp=2 / keyint=240 / keyint_min=24 / scenecut=40 / intra_refresh=0 / rc=2pass / mbtree=0 / bitrate=9195 / ratetol=1.0 / qcomp=0.60 / qpmin=0 / qpmax=69 / qpstep=4 / cplxblur=20.0 / qblur=0.5 / ip_ratio=1.40 / pb_ratio=1.30 / aq=1:1.00
Language : English
Default : Yes
Forced : No
Audio #1
ID : 2
Format : AC-3
Format/Info : Audio Coding 3
Mode extension : CM (complete main)
Format settings, Endianness : Big
Codec ID : A_AC3
Duration : 53 min 5 s
Bit rate mode : Constant
Bit rate : 640 kb/s
Channel(s) : 6 channels
Channel positions : Front: L C R, Side: L R, LFE
Sampling rate : 48.0 kHz
Frame rate : 31.250 FPS (1536 spf)
Bit depth : 16 bits
Compression mode : Lossy
Stream size : 243 MiB (5%)
Title : LostFilm
Language : Russian
Default : Yes
Forced : No
Audio #2
ID : 3
Format : AC-3
Format/Info : Audio Coding 3
Mode extension : CM (complete main)
Format settings, Endianness : Big
Codec ID : A_AC3
Duration : 53 min 5 s
Bit rate mode : Constant
Bit rate : 384 kb/s
Channel(s) : 6 channels
Channel positions : Front: L C R, Side: L R, LFE
Sampling rate : 48.0 kHz
Frame rate : 31.250 FPS (1536 spf)
Bit depth : 16 bits
Compression mode : Lossy
Stream size : 146 MiB (3%)
Title : Кравец-рекордс
Language : Russian
Default : No
Forced : No
Audio #3
ID : 4
Format : AC-3
Format/Info : Audio Coding 3
Mode extension : CM (complete main)
Format settings, Endianness : Big
Codec ID : A_AC3
Duration : 53 min 5 s
Bit rate mode : Constant
Bit rate : 640 kb/s
Channel(s) : 6 channels
Channel positions : Front: L C R, Side: L R, LFE
Sampling rate : 48.0 kHz
Frame rate : 31.250 FPS (1536 spf)
Bit depth : 16 bits
Compression mode : Lossy
Stream size : 243 MiB (5%)
Title : NewStudio
Language : Russian
Default : No
Forced : No
Audio #4
ID : 5
Format : AC-3
Format/Info : Audio Coding 3
Mode extension : CM (complete main)
Format settings, Endianness : Big
Codec ID : A_AC3
Duration : 53 min 5 s
Bit rate mode : Constant
Bit rate : 640 kb/s
Channel(s) : 6 channels
Channel positions : Front: L C R, Side: L R, LFE
Sampling rate : 48.0 kHz
Frame rate : 31.250 FPS (1536 spf)
Bit depth : 16 bits
Compression mode : Lossy
Stream size : 243 MiB (5%)
Title : Кубик в Кубе
Language : Russian
Default : No
Forced : No
Audio #5
ID : 6
Format : AC-3
Format/Info : Audio Coding 3
Mode extension : CM (complete main)
Format settings, Endianness : Big
Codec ID : A_AC3
Duration : 53 min 5 s
Bit rate mode : Constant
Bit rate : 640 kb/s
Channel(s) : 6 channels
Channel positions : Front: L C R, Side: L R, LFE
Sampling rate : 48.0 kHz
Frame rate : 31.250 FPS (1536 spf)
Bit depth : 16 bits
Compression mode : Lossy
Stream size : 243 MiB (5%)
Title : Михаил Чадов
Language : Russian
Default : No
Forced : No
Audio #6
ID : 7
Format : AC-3
Format/Info : Audio Coding 3
Mode extension : CM (complete main)
Format settings, Endianness : Big
Codec ID : A_AC3
Duration : 53 min 5 s
Bit rate mode : Constant
Bit rate : 384 kb/s
Channel(s) : 6 channels
Channel positions : Front: L C R, Side: L R, LFE
Sampling rate : 48.0 kHz
Frame rate : 31.250 FPS (1536 spf)
Bit depth : 16 bits
Compression mode : Lossy
Stream size : 146 MiB (3%)
Title : English
Language : English
Default : No
Forced : No
Audio #7
ID : 8
Format : DTS
Format/Info : Digital Theater Systems
Mode : 16
Format settings, Endianness : Big
Codec ID : A_DTS
Duration : 53 min 5 s
Bit rate mode : Constant
Bit rate : 1 509 kb/s
Channel(s) : 6 channels
Channel positions : Front: L C R, Side: L R, LFE
Sampling rate : 48.0 kHz
Frame rate : 93.750 FPS (512 spf)
Bit depth : 24 bits
Compression mode : Lossy
Stream size : 573 MiB (11%)
Title : DTS-Core
Language : English
Default : No
Forced : No
Text #1
ID : 9
Format : UTF-8
Codec ID : S_TEXT/UTF8
Codec ID/Info : UTF-8 Plain Text
Duration : 49 min 10 s
Bit rate : 122 b/s
Count of elements : 646
Stream size : 44.1 KiB (0%)
Language : Russian
Default : No
Forced : No
Text #2
ID : 10
Format : UTF-8
Codec ID : S_TEXT/UTF8
Codec ID/Info : UTF-8 Plain Text
Duration : 49 min 9 s
Bit rate : 70 b/s
Count of elements : 632
Stream size : 25.5 KiB (0%)
Language : English
Default : No
Forced : No
Menu
00:00:00.000 : en:00:00:00.000
00:06:17.210 : en:00:06:17.210
00:23:38.500 : en:00:23:38.500
00:30:35.584 : en:00:30:35.584
00:39:22.777 : en:00:39:22.777
00:45:31.938 : en:00:45:31.938
00:52:20.346 : en:00:52:20.346

Скриншоты

Вне форума [Профиль] [ЛС]
Похожие темы
Форум Тема Автор Торрент Отв. Посл. сообщение
./templates/default/images/folder_dl.gif Медицина и Здоровье В.И. Лучшева, С.Н. Жарова, В.В. Никифорова | Атлас инфекционных болезней [2009] [DJVU] UndegraundMen
1 | 0

0 | 893

7

2013-08-03 20:41
UndegraundMen Последнее
./templates/default/images/folder_dl.gif Психология, Тренинг, Саморазвитие Лайфхакер | 55 светлых идей по улучшению себя и своей жизни. Путеводитель по саморазвитию (2018) [FB2] }{@R0N
2 | 0

0 | 412

9

2018-10-08 18:26
}{@R0N Последнее
Показать сообщения:    
Ответить на тему

Текущее время: Сегодня 21:03

Часовой пояс: GMT + 3



Вы не можете начинать темы
Вы не можете отвечать на сообщения
Вы не можете редактировать свои сообщения
Вы не можете удалять свои сообщения
Вы не можете голосовать в опросах
Вы не можете прикреплять файлы к сообщениям
Вы не можете скачивать файлы