Сегодня идет свободное скачивание без начисления Download

Любовники / The Affair / Сезон: 3 / Серии: 1-5 из 10 (Марк Майлод) [2016, США, драма, HDTVRip 720p] DVO (Gears Media)

Ответить на тему
 
Автор
Сообщение

Omen ®

Стаж: 6 лет 1 месяц

Сообщений: 184308

Торрент-статистика

Пост 31-Дек-2016 01:00

[Цитировать]

Любовники / The Affair
Год выпуска: 2016
Страна: США
Жанр: драма
Продолжительность: ~00:59:00
Перевод: Профессиональный (двухголосый закадровый) Gears Media
Режиссёр: Марк Майлод
В ролях: Доминик Уэст, Рут Уилсон, Мора Тирни, Джулия Голден Теллес, Джошуа Джексон, Даррен Голдштейн, Майкл Годер, Лавиния Джонс Райт, Джэдон Сэнд, Никки Робинсон и др.
Описание: Любовная драма о запретной страсти со всеми вытекающими последствиями. Добропорядочный семьянин приезжает на отдых с семьей в приморский городок, где себе на беду встречает официантку закусочной. Оба женаты — и единственная измена запускает механизм, который разрушит два брака и жизни четырех людей.
Сэмпл: http://multi-up.com/1129182
Качество: HDTVRip 720p
Формат: MKV
Видео: x264, 1280x720 (16:9), 23,976 fps, 3000 kbps
Аудио1: Russian, AC3, 48 kHz, 2 ch, 384 kbps
Аудио2: English, AC3, 48 kHz, 6 ch, 384 kbps
Субтитры: нет

MediaInfo

Формат : Matroska
Версия формата : Version 4 / Version 2
Размер файла : 1,15 Гбайт
Продолжительность : 58 м. 43 с.
Общий поток : 2799 Кбит/сек
Дата кодирования : UTC 2016-12-01 18:55:48
Программа кодирования : mkvmerge v9.4.2 ('So High') 64bit
Библиотека кодирования : libebml v1.3.4 + libmatroska v1.4.5
Видео
Идентификатор : 1
Формат : AVC
Формат/Информация : Advanced Video Codec
Профиль формата : High@L4.1
Параметр CABAC формата : Да
Параметр ReFrames формата : 5 кадров
Идентификатор кодека : V_MPEG4/ISO/AVC
Продолжительность : 58 м. 43 с.
Битрейт : 2030 Кбит/сек
Ширина : 1280 пикселей
Высота : 720 пикселей
Соотношение сторон : 16:9
Режим частоты кадров : Постоянный
Частота кадров : 23,976 (24000/1001) кадра/сек
Цветовое пространство : YUV
Субдискретизация насыщенности : 4:2:0
Битовая глубина : 8 бит
Тип развёртки : Прогрессивная
Бит/(Пиксели*Кадры) : 0.092
Размер потока : 852 Мбайт (72%)
Библиотека кодирования : x264 core 148 r2705 3f5ed56
Настройки программы : cabac=1 / ref=5 / deblock=1:-2:-2 / analyse=0x3:0x113 / me=umh / subme=8 / psy=1 / psy_rd=1.05:0.00 / mixed_ref=1 / me_range=16 / chroma_me=1 / trellis=1 / 8x8dct=1 / cqm=0 / deadzone=21,11 / fast_pskip=1 / chroma_qp_offset=-2 / threads=18 / lookahead_threads=3 / sliced_threads=0 / nr=0 / decimate=1 / interlaced=0 / bluray_compat=0 / constrained_intra=0 / bframes=3 / b_pyramid=2 / b_adapt=2 / b_bias=0 / direct=3 / weightb=1 / open_gop=0 / weightp=2 / keyint=250 / keyint_min=23 / scenecut=40 / intra_refresh=0 / rc_lookahead=50 / rc=crf / mbtree=1 / crf=18.0 / qcomp=0.60 / qpmin=0 / qpmax=69 / qpstep=4 / ip_ratio=1.40 / aq=1:0.70
Default : Да
Forced : Нет
Аудио #1
Идентификатор : 2
Формат : AC-3
Формат/Информация : Audio Coding 3
Расширение режима : CM (complete main)
Параметр Endianness формата : Big
Идентификатор кодека : A_AC3
Продолжительность : 58 м. 43 с.
Вид битрейта : Постоянный
Битрейт : 384 Кбит/сек
Каналы : 2 канала
Расположение каналов : Front: L R
Частота : 48,0 КГц
Частота кадров : 31,250 кадров/сек (1536 spf)
Метод сжатия : С потерями
Размер потока : 161 Мбайт (14%)
Заголовок : Geras Media
Язык : Russian
Default : Да
Forced : Да
Аудио #2
Идентификатор : 3
Формат : AC-3
Формат/Информация : Audio Coding 3
Расширение режима : CM (complete main)
Параметр Endianness формата : Big
Идентификатор кодека : A_AC3
Продолжительность : 58 м. 43 с.
Вид битрейта : Постоянный
Битрейт : 384 Кбит/сек
Каналы : 6 каналов
Расположение каналов : Front: L C R, Side: L R, LFE
Частота : 48,0 КГц
Частота кадров : 31,250 кадров/сек (1536 spf)
Метод сжатия : С потерями
Размер потока : 161 Мбайт (14%)
Язык : English
Default : Нет
Forced : Нет

Скриншоты

Внимание! Раздача ведётся путём добавления новых серий

Внимание! Раздача ведётся путём добавления новых серий; при каждом добавлении создаётся новый торрент. Чтобы начать докачку новой серии, пользователям необходимо сделать следующее:
(1) остановить скачивание,
(2) удалить старый торрент у себя из клиента (старые серии удалять не надо),
(3) скачать новый торрент и запустить его у себя в клиенте вместо старого, при этом указать клиенту путь в старую папку куда и должно происходить скачивание новых серий.
Ваш клиент при этом должен произвести хеширование (проверку) старой папки (если не производит сам - помогите ему сделать это), и будет докачивать только те серии которых у вас ещё нет. Старые серии при этом не удаляются, а продолжают раздаваться!
Eсли вы уже удалили старые серии, то предотвратить повторную закачку старых серий можно, отжав галочку в соответствующих местах при запуске нового торрента. По возможности, желательно не удалять старые серии как можно дольше чтобы релизёр не столько продолжал раздавать старые серии, а смог сконцентрироваться на новых.
Вне форума [Профиль] [ЛС]
Похожие темы
Форум Тема Автор Торрент Отв. Посл. сообщение
./templates/default/images/folder_dl.gif Обучающая и научно-популярная литература Димитрий Семеник | Наполни жизнь любовью [2010] [MP3] Omen
1 | 0

0 | 1282

6

2013-01-14 21:04
Omen Последнее
./templates/default/images/folder_dl.gif Приключения и квесты Mahjong Detective: The Stolen Love / Маджонг Детектив. Похищенная Любовь [P] [RUS] (2015) Omen
10 | 0

0 | 1282

22

2015-06-08 21:00
Omen Последнее
Показать сообщения:    
Ответить на тему

Текущее время: Сегодня 17:43

Часовой пояс: GMT + 3



Вы не можете начинать темы
Вы не можете отвечать на сообщения
Вы не можете редактировать свои сообщения
Вы не можете удалять свои сообщения
Вы не можете голосовать в опросах
Вы не можете прикреплять файлы к сообщениям
Вы не можете скачивать файлы