Сегодня идет свободное скачивание без начисления Download

Агенты Щ.И.Т. / Agents of S.H.I.E.L.D. / Сезон: 3 / Серии: 1-22 из 22 (Джесси Бокко, Милан Чейлов, Роксанн Доусон) [2015, США, Боевик, фантастика, драма, WEB-DL 1080p] MVO (LostFilm) + Dub (Nevafilm) + Original + Sub (Rus, Eng)

Ответить на тему
 
Автор
Сообщение

Omen ®

Стаж: 5 лет 10 месяцев

Сообщений: 184329

Торрент-статистика

Пост 31-Дек-2016 01:00

[Цитировать]

-Агенты Щ.И.Т. / Agents of S.H.I.E.L.D.- Год выпуска: 2015
Страна: США
Жанр: Боевик, фантастика, драма
Продолжительность: ~00:42:00-Перевод: Профессиональный (многоголосый закадровый) | LostFilm
Перевод: Профессиональный (дублированный) | Nevafilm-Режиссёр: Джесси Бокко, Милан Чейлов, Роксанн Доусон-В ролях: Кларк Грегг, Минг-На, Бретт Далтон, Хлоя Беннет, Йен де Кестекер, Элизабет Хенстридж, Дж. Аугуст Ричардс, Б.Дж. Бритт, Дэвид Конрад, Билл Пэкстон-Описание: Действия сериала разворачиваются после событий фильма «Мстители». Агент Фил Колсон возвращается в правоохранительную организацию под названием Щ.И.Т., собрав небольшую команду профессионалов, он начинает работу над новыми делами, которые порой бывают очень странными.- --Качество: WEB-DL 1080p
Контейнер: MKV
Видео: 1920x1080 at 23.976 fps, MPEG-4 AVC, ~5066 kbps avg, 0.102 bit/pixel
Аудио: 48 kHz, AC3, 3/2 (L,C,R,l,r) + LFE ch, ~384.00 kbps avg | LostFilm
Аудио: 48 kHz, AC3, 2.0 (L,R) ch, ~192.00 kbps avg | Nevafilm
Аудио: 48 kHz, AC3, 3/2 (L,C,R,l,r) + LFE ch, ~384.00 kbps avg
Субтитры: Русские (нотабеноид), английские
Реклама: Отсутствует-

Релиз

работа со звуком - kmarats (1-3, 11-20), Plazik (4-10)
(дорожка получена путем наложения выделенных голосов на центр оригинальной АС3)
Субтитры Firefly2012 , синхронизация qqss44
-

Список серий

01. Законы природы / Laws of Nature
02. Предназначение машины / Purpose in the Machine
03. Разыскивается (не)человек / A Wanted (Inhu)Man
04. Демоны, которых ты знаешь / Devils You Know
05. 4 722 часа / 4,722 Hours
06. Скрывается среди нас / Among Us Hide…
07. Теория хаоса / Chaos Theory
08. Много голов — один хвост / Many Heads, One Tale
09. Примирение с утратой / Closure
10. Мавэс / Maveth
11. Реабилитация / Bouncing Back
12. Информатор / The Inside Man
13. Прощальный залп / Parting Shot
14. Надзиратели / Watchdogs
15. Пространство-время / Spacetime
16. Потерянный рай / Paradise Lost
17. Команда / The Team
18. Сингулярность / The Singularity
19. Неудачные эксперименты / Failed Experiments
20. Избавление / Emancipation
21. Прощение / Absolution
22. Вознесение / Ascension
-

MediaInfo

ОбщееУникальный идентификатор : 242180195747576041518862465641267978950 (0xB63235871AC4191CB52B7E1DB6B9E2C6)Полное имя : E:\Movies\Agents Of S.H.I.E.L.D. (Season 3) WEB-DL 1080p\Agents.of.S.H.I.E.L.D.S03E01.WEB-DL.1080p.mkvФормат : MatroskaВерсия формата : Version 4 / Version 2Размер файла : 1,81 ГбайтПродолжительность : 43 м. 3 с.Общий поток : 6029 Кбит/секНазвание фильма : Agents.of.S.H.I.E.L.D. 3x01 (2015) - Release by Wentworth_MillerДата кодирования : UTC 2016-12-28 19:30:13Программа кодирования : mkvmerge v9.7.0 ('Numbers') 32bitБиблиотека кодирования : libebml v1.3.4 + libmatroska v1.4.5
ВидеоИдентификатор : 1Формат : AVCФормат/Информация : Advanced Video CodecПрофиль формата : High@L4Параметр CABAC формата : ДаПараметр ReFrames формата : 4 кадраИдентификатор кодека : V_MPEG4/ISO/AVCПродолжительность : 43 м. 3 с.Битрейт : 5066 Кбит/секШирина : 1920 пикселейВысота : 1080 пикселейСоотношение сторон : 16:9Режим частоты кадров : ПостоянныйЧастота кадров : 23,976 (24000/1001) кадра/секЦветовое пространство : YUVСубдискретизация насыщенности : 4:2:0Битовая глубина : 8 битТип развёртки : ПрогрессивнаяБит/(Пиксели*Кадры) : 0.102Размер потока : 1,52 Гбайт (84%)Заголовок : Agents.of.S.H.I.E.L.D. 3x01 (2015) - Release by Wentworth_MillerЯзык : EnglishDefault : ДаForced : НетЦветовой диапазон : LimitedОсновные цвета : BT.709Характеристики трансфера : BT.709Коэффициенты матрицы : BT.709
Аудио #1Идентификатор : 2Формат : AC-3Формат/Информация : Audio Coding 3Расширение режима : CM (complete main)Параметр Endianness формата : BigИдентификатор кодека : A_AC3Продолжительность : 43 м. 3 с.Вид битрейта : ПостоянныйБитрейт : 384 Кбит/секКаналы : 6 каналовРасположение каналов : Front: L C R, Side: L R, LFEЧастота : 48,0 КГцЧастота кадров : 31,250 кадров/сек (1536 spf)Битовая глубина : 16 битМетод сжатия : С потерямиРазмер потока : 118 Мбайт (6%)Заголовок : LostFilmЯзык : RussianDefault : ДаForced : Нет
Аудио #2Идентификатор : 3Формат : AC-3Формат/Информация : Audio Coding 3Расширение режима : CM (complete main)Параметр Endianness формата : BigИдентификатор кодека : A_AC3Продолжительность : 43 м. 3 с.Вид битрейта : ПостоянныйБитрейт : 192 Кбит/секКаналы : 2 каналаРасположение каналов : Front: L RЧастота : 48,0 КГцЧастота кадров : 31,250 кадров/сек (1536 spf)Битовая глубина : 16 битМетод сжатия : С потерямиРазмер потока : 59,1 Мбайт (3%)Заголовок : NevafilmЯзык : RussianDefault : НетForced : Нет
Аудио #3Идентификатор : 4Формат : AC-3Формат/Информация : Audio Coding 3Расширение режима : CM (complete main)Параметр Endianness формата : BigИдентификатор кодека : A_AC3Продолжительность : 43 м. 3 с.Вид битрейта : ПостоянныйБитрейт : 384 Кбит/секКаналы : 6 каналовРасположение каналов : Front: L C R, Side: L R, LFEЧастота : 48,0 КГцЧастота кадров : 31,250 кадров/сек (1536 spf)Битовая глубина : 16 битМетод сжатия : С потерямиРазмер потока : 118 Мбайт (6%)Язык : EnglishDefault : НетForced : Нет
Текст #1Идентификатор : 5Формат : UTF-8Идентификатор кодека : S_TEXT/UTF8Идентификатор кодека/Информация : UTF-8 Plain TextПродолжительность : 41 м. 40 с.Битрейт : 151 бит/секCount of elements : 773Размер потока : 46,4 Кбайт (0%)Язык : RussianDefault : НетForced : Нет
Текст #2Идентификатор : 6Формат : UTF-8Идентификатор кодека : S_TEXT/UTF8Идентификатор кодека/Информация : UTF-8 Plain TextПродолжительность : 42 м. 22 с.Битрейт : 92 бит/секCount of elements : 871Размер потока : 28,6 Кбайт (0%)Заголовок : CCЯзык : EnglishDefault : НетForced : Нет
-

Скриншоты

Вне форума [Профиль] [ЛС]
Показать сообщения:    
Ответить на тему

Текущее время: Сегодня 23:26

Часовой пояс: GMT + 3



Вы не можете начинать темы
Вы не можете отвечать на сообщения
Вы не можете редактировать свои сообщения
Вы не можете удалять свои сообщения
Вы не можете голосовать в опросах
Вы не можете прикреплять файлы к сообщениям
Вы не можете скачивать файлы