Сегодня идет свободное скачивание без начисления Download

Доктор Кто / Doctor Who / Сезон: 9 / Серии: 0-14 из 14 (Стивен Моффат) [2015, Великобритания, фантастика, приключения, WEB-DL 720p] Original + Rus Subs (TEAmTARDIS)

Ответить на тему
 
Автор
Сообщение

Omen ®

Стаж: 5 лет 9 месяцев

Сообщений: 184402

Торрент-статистика

Пост 27-Дек-2016 01:00

[Цитировать]

Доктор Кто / Doctor Who
Год выпуска: 2015 - 2016
Страна: Великобритания
Жанр: фантастика, приключения
Продолжительность: ~46
Перевод: Субтитры TEAmTARDIS
Сценарист: Стивен Моффат
В ролях: Питер Капальди (Peter Capaldi), Дженна Коулман (Jenna Coleman), Мишель Гомес (Michelle Gomez), Джемма Редгрейв (Jemma Redgrave), Ингрид Оливер (Ingrid Oliver)
Описание: Сериал отображает приключения мистического инопланетянина-гуманоида называющего себя Доктор, без цели путешествующего через время и пространство в космическом корабле, который снаружи выглядит как полицейская будка 50-х годов. Доктор чрезвычайно эксцентричен и имеет невероятные знания в областях технологии, истории и науки. Он путешествует вместе со своими компаньонами, попутно борясь против космических злодеев и спасая Землю от бесчисленных врагов.
Доп. информация: Перевод Марии Шмидт и Дарьи Антоненко (TEAmTARDIS)
Обратите внимание, что в раздаче присутствуют Пролог к сезону (S09E00) и Приквел к первой серии (S09E01.Prequel), а также Рождественские серии 2015 и 2016 годов!
Сэмпл: http://multi-up.com/1067358
Качество: WEB-DL 720p
Контейнер: MKV
Видео: AVC, 960x720 (16:9), 3957 kbps, 25 fps, 0,229 bpp
Аудио: английский / AC3 / 5.1 / 48 kHz / 384 kbps / 16 bit
Субтитры: софтсабы

MediaInfo

Общее
Уникальный идентификатор : 168779782256715163085519728281861075328 (0x7EF9CDBD064C47BEF48284D7E321B180)
Полное имя : /Volumes/4 TB/RuTracker/Doctor.Who.2005.S09.720p.TEAmTARDIS/Doctor.Who.2005.S09E01.The.Magician's.Apprentice.720p.TEAmTARDIS.mkv
Формат : Matroska
Версия формата : Version 4 / Version 2
Размер файла : 1,44 Гбайт
Продолжительность : 46 м.
Общий поток : 4429 Кбит/сек
Дата кодирования : UTC 2015-09-20 22:10:28
Программа кодирования : mkvmerge v8.4.0 ('A better way to fly') 64bit
Библиотека кодирования : libebml v1.3.1 + libmatroska v1.4.2
Attachements : small_cover.jpg / cover.jpg / cover_land.jpg / small_cover_land.jpg
DURATION : 00:44:46.150000000
NUMBER_OF_FRAMES : 685
NUMBER_OF_BYTES : 33854
_STATISTICS_WRITING_APP : mkvmerge v8.4.0 ('A better way to fly') 64bit
_STATISTICS_WRITING_DATE_UTC : 2015-09-20 22:10:28
_STATISTICS_TAGS : BPS DURATION NUMBER_OF_FRAMES NUMBER_OF_BYTES
Видео
Идентификатор : 1
Формат : AVC
Формат/Информация : Advanced Video Codec
Профиль формата : Main@L3.1
Параметр CABAC формата : Нет
Параметр ReFrames формата : 2 кадра
Идентификатор кодека : V_MPEG4/ISO/AVC
Продолжительность : 46 м.
Битрейт : 3957 Кбит/сек
Ширина : 960 пикселей
Высота : 720 пикселей
Соотношение сторон : 16:9
Режим частоты кадров : Постоянный
Частота кадров : 25,000 кадров/сек
Цветовое пространство : YUV
Субдискретизация насыщенности : 4:2:0
Битовая глубина : 8 бит
Тип развёртки : Прогрессивная
Бит/(Пиксели*Кадры) : 0.229
Размер потока : 1,29 Гбайт (89%)
Язык : English
Default : Да
Forced : Нет
Color range : Limited
Основные цвета : BT.709
Характеристики трансфера : BT.709
Коэффициенты матрицы : BT.709
Аудио
Идентификатор : 2
Формат : AC-3
Формат/Информация : Audio Coding 3
Расширение режима : CM (complete main)
Параметр Endianness формата : Big
Идентификатор кодека : A_AC3
Продолжительность : 46 м.
Вид битрейта : Постоянный
Битрейт : 384 Кбит/сек
Каналы : 6 каналов
Расположение каналов : Front: L C R, Side: L R, LFE
Частота : 48,0 КГц
Метод сжатия : С потерями
Размер потока : 128 Мбайт (9%)
Язык : English
Default : Да
Forced : Нет
Текст
Идентификатор : 3
Формат : UTF-8
Идентификатор кодека : S_TEXT/UTF8
Идентификатор кодека/Информация : UTF-8 Plain Text
Заголовок : TEAmTARDIS
Язык : Russian
Default : Да
Forced : Да

Скриншоты

Внимание! Раздача ведётся путём добавления новых серий!

Внимание! Раздача ведётся путём добавления новых серий; при каждом добавлении создаётся новый торрент. Чтобы начать докачку новой серии, пользователям необходимо сделать следующее:
(1) остановить скачивание,
(2) удалить старый торрент у себя из клиента (старые серии удалять не надо),
(3) скачать новый торрент и запустить его у себя в клиенте вместо старого, при этом указать клиенту путь в старую папку куда и должно происходить скачивание новых серий.
Ваш клиент при этом должен произвести хеширование (проверку) старой папки (если не производит сам - помогите ему сделать это), и будет докачивать только те серии которых у вас ещё нет. Старые серии при этом не удаляются, а продолжают раздаваться!
Eсли вы уже удалили старые серии, то предотвратить повторную закачку старых серий можно, отжав галочку в соответствующих местах при запуске нового торрента. По возможности, желательно не удалять старые серии как можно дольше чтобы релизёр не столько продолжал раздавать старые серии, а смог сконцентрироваться на новых.
Добавлена рождественская серия 2016 года "Возвращение Доктора Мистерио"
(качество WEB-DL)
Вне форума [Профиль] [ЛС]
Похожие темы
Форум Тема Автор Торрент Отв. Посл. сообщение
./templates/default/images/folder_dl.gif Медицина и Здоровье Александр Мясников | Энциклопедия доктора Мясникова о самом главном (2015) [FB2, RTF] Omen
1 | 0

0 | 870

9

2015-08-20 23:47
Omen Последнее
./templates/default/images/folder_dl.gif Обучающая и научно-популярная литература Александр Мясников | О самом главном с доктором Мясниковым (2015) [MP3] Omen
1 | 0

0 | 553

3

2015-10-14 18:56
Omen Последнее
./templates/default/images/folder_dl.gif Медицина и Здоровье Александр Мясников | Энциклопедия доктора Мясникова о самом главном [3 тома] (2015-2017) [FB2] }{@R0N
1 | 0

0 | 7445

23

2017-11-20 21:19
}{@R0N Последнее
Показать сообщения:    
Ответить на тему

Текущее время: Сегодня 08:01

Часовой пояс: GMT + 3



Вы не можете начинать темы
Вы не можете отвечать на сообщения
Вы не можете редактировать свои сообщения
Вы не можете удалять свои сообщения
Вы не можете голосовать в опросах
Вы не можете прикреплять файлы к сообщениям
Вы не можете скачивать файлы