Сегодня идет свободное скачивание без начисления Download

Роузвуд / Rosewood / Сезон: 1 / Серии: 1-22 из 22 (Ричард Шепард, Сара Пиа Андерсон, Эрик Ланёвилль) [2015, США, драма, криминал, WEB-DL 1080p] MVO (NewStudio) + Original

Ответить на тему
 
Автор
Сообщение

Omen ®

Стаж: 5 лет 7 месяцев

Сообщений: 185412

Торрент-статистика

Пост 27-Дек-2016 01:00

[Цитировать]

Роузвуд / Rosewood
Год выпуска: 2015
Страна: США
Жанр: драма, криминал
Продолжительность: ~ 00:45:00
Перевод: Профессиональный (многоголосый закадровый) NewStudio
Режиссёр: Ричард Шепард, Сара Пиа Андерсон, Эрик Ланёвилль
В ролях: Мирей Инос, Роуз Роллинз, Элви Йост, Питер Краузе, Изабелла Санчез, Шивани Гаи, Николь Петтис, Абель Бесерра, Брайан Богарт, Ребекка Чалив
Описание: История о патологоанатоме из Майами, докторе Роузвуде. Он проводит вскрытия в своей передовой лаборатории, чтобы обнаружить улики, невидимые для департамента полиции.
Сэмпл
Реклама: присутствуют видео, аудио вставки рекламы.
Качество: WEB-DL 1080p
Контейнер: MKV
Видео: AVC/H.264, 1916х1076 [16:9], 23.976 fps, ~4948 Кбит/сек
Аудио: Русский, ac3, 48000 Hz, 5.1, 384 kb/s
Аудио 2: Английский, ac3, 48000 Hz, 5.1, 384 kb/s
Субтитры: отсутствуют

Список серий

01. Pilot / Пилот
02. Fireflies and Fidelity / Светлячки и верность
03. Have-Nots and Hematomas / Бедняки и синяки
04. Vitamins and Vandals / Вандалы и витамины
05. Necrosis and New Beginnings / Некроз и новое начало
06. Policies and Ponies / Полисы и пони
07. Quadriplegia and Quality Time / Паралич и общение
08. Bloodhunt and Beats / Охота и сердцебиение
09. Fashionistas and Fasciitiss / Фэшен и фасцит
10. Aortic Atresia and Art Installati / Аорта и Арт-инсталляции
11. Paralytics and Priorities / Паралич и приоритеты
12. Negative Autopsies and New Partner / Неудачные вскрытия и новый партнер
13. Ballistics & BFFs / Баллистика и лучшие друзья
14. Hydrocephalus & Hard Knocks / Водянка и вопросы
15. Atherosclerosis and the Alabama Film-Flam / Атеросклероз и Алабамский трюк
16. Dead Drops & Disentanglement / Тайники и тайны
17. Silkworms & Silencio / Шелкопряд и шепот
18. Thorax, Thrombosis & Threesomes / Тромбоз и тройничок
19. Sudden Death and Shades Deep / Смерть и согруппники
20. Keratin and Kissy Face / Висяк и волосы
21. Wooberite & The Women of Rosewood / Жесть и женщины Роузвуда
22. Badges & Bombshells / Пропуски и бомбы

MediaInfo

Общее
Уникальный идентификатор : 241410712007675907916313558971571141485 (0xB59E030CDEEBE93493FE7AE7BA527B6D)
Полное имя : J:\Torrent In\MY\Роузвуд\Rosewood s1\Rosewood.s01e01.WEBDL.1080p.NewStudio.mkv
Формат : Matroska
Версия формата : Version 4 / Version 2
Размер файла : 1,80 Гбайт
Продолжительность : 44 м.
Общий поток : 5756 Кбит/сек
Дата кодирования : UTC 2015-09-25 20:21:12
Программа кодирования : mkvmerge v8.2.0 ('World of Adventure') 32bit
Библиотека кодирования : libebml v1.3.1 + libmatroska v1.4.2
DURATION : 00:44:53.760000000
NUMBER_OF_FRAMES : 84180
NUMBER_OF_BYTES : 129300480
_STATISTICS_WRITING_APP : mkvmerge v8.2.0 ('World of Adventure') 32bit
_STATISTICS_WRITING_DATE_UTC : 2015-09-25 20:21:12
_STATISTICS_TAGS : BPS DURATION NUMBER_OF_FRAMES NUMBER_OF_BYTES
Видео
Идентификатор : 1
Формат : AVC
Формат/Информация : Advanced Video Codec
Профиль формата : High@L4.0
Параметр CABAC формата : Да
Параметр ReFrames формата : 4 кадра
Идентификатор кодека : V_MPEG4/ISO/AVC
Продолжительность : 44 м.
Битрейт : 4873 Кбит/сек
Ширина : 1916 пикселей
Высота : 1076 пикселей
Соотношение сторон : 16:9
Режим частоты кадров : Постоянный
Частота кадров : 23,976 кадра/сек
Цветовое пространство : YUV
Субдискретизация насыщенности : 4:2:0
Битовая глубина : 8 бит
Тип развёртки : Прогрессивная
Бит/(Пиксели*Кадры) : 0.099
Размер потока : 1,53 Гбайт (85%)
Язык : English
Default : Да
Forced : Нет
Основные цвета : BT.709
Характеристики трансфера : BT.709
Коэффициенты матрицы : BT.709
Аудио #1
Идентификатор : 2
Формат : AC-3
Формат/Информация : Audio Coding 3
Расширение режима : CM (complete main)
Параметр Endianness формата : Big
Идентификатор кодека : A_AC3
Продолжительность : 44 м.
Вид битрейта : Постоянный
Битрейт : 384 Кбит/сек
Каналы : 6 каналов
Расположение каналов : Front: L C R, Side: L R, LFE
Частота : 48,0 КГц
Битовая глубина : 16 бит
Метод сжатия : С потерями
Задержка видео : 17 мс.
Размер потока : 123 Мбайт (7%)
Заголовок : NewStudio.TV
Язык : Russian
Default : Да
Forced : Нет
Аудио #2
Идентификатор : 3
Формат : AC-3
Формат/Информация : Audio Coding 3
Расширение режима : CM (complete main)
Параметр Endianness формата : Big
Идентификатор кодека : A_AC3
Продолжительность : 44 м.
Вид битрейта : Постоянный
Битрейт : 384 Кбит/сек
Каналы : 6 каналов
Расположение каналов : Front: L C R, Side: L R, LFE
Частота : 48,0 КГц
Битовая глубина : 16 бит
Метод сжатия : С потерями
Задержка видео : 17 мс.
Размер потока : 123 Мбайт (7%)
Язык : English
Default : Нет
Forced : Нет

Скриншоты

Дополнительная информация: автор релиза - Illenorld с Ноунейма
Вне форума [Профиль] [ЛС]
Показать сообщения:    
Ответить на тему

Текущее время: Сегодня 10:44

Часовой пояс: GMT + 3



Вы не можете начинать темы
Вы не можете отвечать на сообщения
Вы не можете редактировать свои сообщения
Вы не можете удалять свои сообщения
Вы не можете голосовать в опросах
Вы не можете прикреплять файлы к сообщениям
Вы не можете скачивать файлы