Сегодня идет свободное скачивание без начисления Download

Николай Ягодкин | Технологии набора словарного запаса (2013) HDRip [H.264/720p]

Ответить на тему
 
Автор
Сообщение

Omen ®

Стаж: 6 лет

Сообщений: 184329

Торрент-статистика

Пост 27-Дек-2016 01:00

[Цитировать]

Технологии набора словарного запаса - Автор (режиссер): Николай Ягодкин
Производство: Advance club
Жанр: Иностранный язык
Описание:
Вы узнаете самые эффективные технологии набора словарного запаса под любые цели и в кратчайшие сроки, что значительно ускорит освоение любого языка.
Это семинар для Вас, если Вы до сих пор:
- Учите по несколько значений слова одновременно?
- Пишите на карточках полную транскрипцию слова
- Берёте слова для запоминания из словарей или списков слов
- Запоминаете слова в отрыве от контекста, так что потом возникают сложности в подборе нужного слова
- Из сотни выученных Вами слов только несколько попадают в активное употребление
- Из тысячи выученных слов через год не можете вспомнить хотя бы 900
Каждый из этих пунктов сильно тормозит вас в наборе словарного запаса, а, следовательно, и в освоении языка.
Продолжительность: 03:37:44
Качество видео: HDRip
Видео: AVC/H.264, 1280х720, ~1287 Kbps
Аудио: AAC, 2 ch, 192 Kbps, VBR

Mediainfo:

Код:
General
Complete name                            : C:\Torrents\Ягодкин Николай - Технологии набора словарного запаса (13.06.2013).mp4
Format                                   : MPEG-4
Format profile                           : Base Media / Version 2
Codec ID                                 : mp42
File size                                : 2.25 GiB
Duration                                 : 3h 37mn
Overall bit rate mode                    : Variable
Overall bit rate                         : 1 481 Kbps
Encoded date                             : UTC 2013-07-07 04:38:04
Tagged date                              : UTC 2013-07-07 04:38:04
gsst                                     : 0
gstd                                     : 13064428
gssd                                     : BB2318108HH1385491279820332
gshh                                     : r5---sn-ov8vuxaxjvh-v8ce.googlevideo.com
Video
ID                                       : 1
Format                                   : AVC
Format/Info                              : Advanced Video Codec
Format profile                           : [url=mailto:High@L3.1]High@L3.1[/url]
Format settings, CABAC                   : Yes
Format settings, ReFrames                : 1 frame
Format settings, GOP                     : M=1, N=60
Codec ID                                 : avc1
Codec ID/Info                            : Advanced Video Coding
Duration                                 : 3h 37mn
Bit rate                                 : 1 287 Kbps
Maximum bit rate                         : 3 911 Kbps
Width                                    : 1 280 pixels
Height                                   : 720 pixels
Display aspect ratio                     : 16:9
Frame rate mode                          : Constant
Frame rate                               : 29.970 fps
Color space                              : YUV
Chroma subsampling                       : 4:2:0
Bit depth                                : 8 bits
Scan type                                : Progressive
Bits/(Pixel*Frame)                       : 0.047
Stream size                              : 1.96 GiB (87%)
Tagged date                              : UTC 2013-07-07 04:52:19
Audio
ID                                       : 2
Format                                   : AAC
Format/Info                              : Advanced Audio Codec
Format profile                           : LC
Codec ID                                 : 40
Duration                                 : 3h 37mn
Bit rate mode                            : Variable
Bit rate                                 : 192 Kbps
Maximum bit rate                         : 202 Kbps
Channel(s)                               : 2 channels
Channel positions                        : Front: L R
Sampling rate                            : 44.1 KHz
Compression mode                         : Lossy
Stream size                              : 299 MiB (13%)
Title                                    : IsoMedia File Produced by Google, 5-11-2011
Encoded date                             : UTC 2013-07-07 04:45:57
Tagged date                              : UTC 2013-07-07 04:52:19

Дополнительная информация:

На семинаре мы подробно разберём как:
Набирать только нужные вам слова и запоминать их сотнями
Быстро вводить в активное употребление выученные слова?
Набирать словарный запас живого языка при отсутствии практики
Убрать 100% ошибок в написании тысячи слов всего за пару часов
Отследить и устранить ошибки в произношении и написании давно выученных слов
Сколько нужно знать слов и откуда их брать?
На семинаре Вы получите пошаговые алгоритмы:
Постановки правильного написания тысяч слов всего за несколько часов
Постановки правильного произношения уже выученных слов
Набора словарного запаса живого языка
Быстрого набора узкоспециализированного словаря (Как начать читать книги на любую тему)
Правильной работы с видео и текстовыми материалами для набора слов
Часть из этих алгоритмов мы отработаем на практике прямо на семинаре.
Семинар будет полезен всем, кто учит язык, от нулевого до профессионального уровня владения языком.
Технологии и принципы, озвученные на семинаре, подходят как для европейских, так и для восточных языков.
Скриншоты:
       
Вне форума [Профиль] [ЛС]

Dracula

Стаж: 5 лет 1 месяц

Сообщений: 12208

Торрент-статистика

Пост 15-Янв-2017 14:11 (спустя 19 дней)

Топик был перенесен из форума Печь в форум Обучающее видео


}{@R0N
 
Похожие темы
Форум Тема Автор Торрент Отв. Посл. сообщение
./templates/default/images/folder_dl.gif Обучающее видео Николай Ягодкин | Kypc-интeнсив «Развитие памяти и внимания» (2013) PCRec [H.264] Omen
2 | 0

0 | 1480

31

2016-12-30 01:00
Omen Последнее
./templates/default/images/folder_dl.gif Обучающее видео Николай Ягодкин | Техника запоминания 100 иностранных слов в час (2013) DVDRip [H.264] Omen
1 | 0

0 | 3005

45

2017-01-14 01:00
Omen Последнее
./templates/default/images/folder_dl.gif Фантастика, фэнтези, ужасы, мистика Николай Желунов | Тайный Дозор (2017) [MP3] }{@R0N
1 | 0

0 | 6563

3

2017-05-08 20:15
}{@R0N Последнее
Показать сообщения:    
Ответить на тему

Текущее время: Сегодня 11:59

Часовой пояс: GMT + 3



Вы не можете начинать темы
Вы не можете отвечать на сообщения
Вы не можете редактировать свои сообщения
Вы не можете удалять свои сообщения
Вы не можете голосовать в опросах
Вы не можете прикреплять файлы к сообщениям
Вы не можете скачивать файлы