Сегодня идет свободное скачивание без начисления Download

Голиаф / Goliath / Сезон: 1 / Серии: 1-8 из 8 (Лоуренс Триллинг / Lawrence Trilling, Алик Сахаров / Alik Sakharov, Билл Д’Элиа / Bill D\'Eli) [2016, США, драма, WEBRip 2160p] MVO (BaibaKo) + Sub Eng + Original

Ответить на тему
 
Автор
Сообщение

Omen ®

Стаж: 5 лет 7 месяцев

Сообщений: 185427

Торрент-статистика

Пост 25-Дек-2016 01:01

[Цитировать]

Голиаф / Goliath
Год выпуска: 2016
Страна: США
Жанр: драма
Продолжительность: 00:55:00
Перевод: Профессиональный (многоголосый закадровый) BaibaKo
Режиссёр: Лоуренс Триллинг / Lawrence Trilling, Алик Сахаров / Alik Sakharov, Билл Д’Элиа / Bill D'Eli
В ролях: Билли Боб Торнтон, Уильям Хёрт, Мария Белло, Оливия Тирлби, Нина Арианда, Молли Паркер, Таня Рэймонд, Сара Уайнтер, Бритен Далтон, Дэймон Гаптон
Описание: В руки опального адвоката, гоняющегося за машинами скорой помощи в поисках новых клиентов, попадает дело, которое может принести ему искупление или, по крайней мере, возможность отомстить фирме, вышвырнувшей его на улицу.
Доп. информация:
В релизе отсутствует реклама.
Перевод: Talagrim. Озвучка: Дмитрий Нежельский, Эдвард Бриони, Ольга Мотрич, Светлана Доманова @ BaibaKo.
Сэмпл: https://cloud.mail.ru/public/5EsF/xBdeMwaS2
Качество: WEBRip 2160p
Контейнер: MKV
Видео: MPEG-4 AVC, 23,9 Мбит/с, 3840x1920, 23,976 fps
Аудио: Rus, E-AC3, 640 kb/s (2 ch), 48 kHz
Аудио 2: Eng, E-AC3, 640 kb/s (2 ch), 48 kHz
Субтитры: Английские

Список серий

Season 1, Episodes 1-8
Episode 1: Of Mice and Men / О мышах и людях
Episode 2: Pride and Prejudice / Гордость и предубеждение
Episode 3: Game On / Игра началась
Episode 4: It's Donald / Зови меня Дональд
Episode 5: Cover Your Ass / Прикрыть зад
Episode 6: Line of Fire / На линии огня
Episode 7: Beauty and the Beast / Красавица и чудовище
Episode 8: Citizens United / Единодушным решением

MediaInfo

Общее
Уникальный идентификатор : 247129350646198734639150840922522247385 (0xB9EB61B41E7AA28D9398E501ABE3E0D9)
Полное имя : Goliath.S01.2160p.Amazon.WEBRip.Rus.Eng.TrollUHD-ULTRAHDCLUB\Goliath.S01E01.2160p.Amazon.WEBRip.Rus.Eng.TrollUHD-ULTRAHDCLUB.mkv
Формат : Matroska
Версия формата : Version 4 / Version 2
Размер файла : 9,62 Гбайт
Продолжительность : 54 м.
Общий поток : 25,2 Мбит/сек
Название фильма : Goliath - Season 1, Episode 1: Of Mice and Men (2016) - Release for ULTRAHDCLUB
Дата кодирования : UTC 2016-12-21 14:17:16
Программа кодирования : mkvmerge v9.5.0 ('Quiet Fire') 64bit
Библиотека кодирования : libebml v1.3.4 + libmatroska v1.4.5
Видео
Идентификатор : 1
Формат : AVC
Формат/Информация : Advanced Video Codec
Профиль формата : High@L5.1
Параметр CABAC формата : Да
Параметр ReFrames формата : 5 кадров
Идентификатор кодека : V_MPEG4/ISO/AVC
Продолжительность : 54 м.
Битрейт : 23,9 Мбит/сек
Ширина : 3840 пикселей
Высота : 1920 пикселей
Соотношение сторон : 2,000
Режим частоты кадров : Постоянный
Частота кадров : 23,976 (24000/1001) кадра/сек
Цветовое пространство : YUV
Субдискретизация насыщенности : 4:2:0
Битовая глубина : 8 бит
Тип развёртки : Прогрессивная
Бит/(Пиксели*Кадры) : 0.135
Размер потока : 9,13 Гбайт (95%)
Заголовок : Goliath - Season 1, Episode 1: Of Mice and Men (2016) - Release for ULTRAHDCLUB
Библиотека кодирования : x264 core 148 r2638 7599210
Настройки программы : cabac=1 / ref=5 / deblock=1:-3:-3 / analyse=0x3:0x133 / me=umh / subme=10 / psy=1 / psy_rd=1.00:0.00 / mixed_ref=1 / me_range=48 / chroma_me=1 / trellis=2 / 8x8dct=1 / cqm=0 / deadzone=21,11 / fast_pskip=1 / chroma_qp_offset=-2 / threads=12 / lookahead_threads=2 / sliced_threads=0 / nr=0 / decimate=0 / interlaced=0 / bluray_compat=0 / constrained_intra=0 / bframes=8 / b_pyramid=2 / b_adapt=2 / b_bias=0 / direct=3 / weightb=1 / open_gop=0 / weightp=2 / keyint=240 / keyint_min=23 / scenecut=40 / intra_refresh=0 / rc_lookahead=60 / rc=crf / mbtree=1 / crf=17.0 / qcomp=0.70 / qpmin=0 / qpmax=69 / qpstep=4 / ip_ratio=1.40 / aq=1:0.70
Язык : English
Default : Да
Forced : Нет
Аудио #1
Идентификатор : 2
Формат : AC-3
Формат/Информация : Audio Coding 3
Расширение режима : CM (complete main)
Параметр Endianness формата : Big
Идентификатор кодека : A_AC3
Продолжительность : 54 м.
Вид битрейта : Постоянный
Битрейт : 640 Кбит/сек
Каналы : 6 каналов
Расположение каналов : Front: L C R, Side: L R, LFE
Частота : 48,0 КГц
Частота кадров : 31,250 кадров/сек (1536 spf)
Метод сжатия : С потерями
Размер потока : 250 Мбайт (3%)
Заголовок : E-AC3 5.1 @ 640 kbps - MVO, BaibaKo
Язык : Russian
Default : Нет
Forced : Нет
Аудио #2
Идентификатор : 3
Формат : E-AC-3
Формат/Информация : Audio Coding 3
Параметр Endianness формата : Big
Идентификатор кодека : A_EAC3
Продолжительность : 54 м.
Вид битрейта : Постоянный
Битрейт : 640 Кбит/сек
Каналы : 6 каналов
Расположение каналов : Front: L C R, Side: L R, LFE
Частота : 48,0 КГц
Частота кадров : 187,500 кадров/сек (256 spf)
Метод сжатия : С потерями
Размер потока : 250 Мбайт (3%)
Заголовок : E-AC3 5.1 @ 640 kbps
Язык : English
Default : Да
Forced : Нет
Текст #1
Идентификатор : 4
Формат : UTF-8
Идентификатор кодека : S_TEXT/UTF8
Идентификатор кодека/Информация : UTF-8 Plain Text
Продолжительность : 53 м.
Битрейт : 75 бит/сек
Count of elements : 1024
Размер потока : 29,7 Кбайт (0%)
Язык : English
Default : Нет
Forced : Нет
Текст #2
Идентификатор : 5
Формат : UTF-8
Идентификатор кодека : S_TEXT/UTF8
Идентификатор кодека/Информация : UTF-8 Plain Text
Продолжительность : 53 м.
Битрейт : 79 бит/сек
Count of elements : 1105
Размер потока : 31,5 Кбайт (0%)
Заголовок : SDH
Язык : English
Default : Нет
Forced : Нет

Скриншоты

Вне форума [Профиль] [ЛС]
Показать сообщения:    
Ответить на тему

Текущее время: Сегодня 08:20

Часовой пояс: GMT + 3



Вы не можете начинать темы
Вы не можете отвечать на сообщения
Вы не можете редактировать свои сообщения
Вы не можете удалять свои сообщения
Вы не можете голосовать в опросах
Вы не можете прикреплять файлы к сообщениям
Вы не можете скачивать файлы