Сегодня идет свободное скачивание без начисления Download

Кома / Coma / Сезон: 1 / Серии: 1-2 из 2 (Микаэл Саломон) [2012, США, детектив, драма, триллер, WEB-DL 720p] MVO (ТВ3) + Original + Sub Eng

Ответить на тему
 
Автор
Сообщение

Omen ®

Стаж: 6 лет 1 месяц

Сообщений: 184308

Торрент-статистика

Пост 25-Дек-2016 01:00

[Цитировать]

Кома / Coma
Год выпуска: 2012
Страна: США
Жанр: детектив, драма, триллер
Продолжительность: 01:20:00
Перевод: Профессиональный (многоголосый закадровый) ТВ3
Режиссёр: Микаэл Саломон
В ролях: Тара Джонс, William Gerber, Кэл Джонсон, Lillian Ellen Jones, Кэти Нилэнд, Natalie Knepp, Робин Ли Мэгги, Erik Thirsk, Елена Варела, Джералд Дакворт и др.
Описание: Ремейк одноименного триллера 1978 года с Майклом Дагласом в главной роли. Молодая женщина-доктор начинает подозревать, что в ее клинике творится нечто неладное. Сравнительно здоровые пациенты, испытывают "осложнения" в ходе простых операций и впадают в кому. После несчастных коматозников отвозят в исследовательский институт, где они располагаются под наблюдением. Девушке предстоит изучить палаты, морги и иные мрачные места жутковатого медицинского центра и убедить критически настроенного коллегу, что ее подозрения - не просто паранойя....
Сэмпл: http://multi-up.com/1132095
Качество: WEB-DL 720p
Контейнер: MKV
Видео: AVC, 1280x720 (16:9), 23.976 fps, 4 009 Kbps (0.181 bit/pixel)
Аудио: AC-3, 48.0 KHz, 2 ch, 192 Kbps, CBR (Russian)
Аудио 2: AC-3, 48.0 KHz, 6 ch, 384 Kbps, CBR (English)
Субтитры: английские, softsub
Реклама:
нет

MediaInfo

Общее
Уникальный идентификатор : 196006727387900045959711322430575471667 (0x937585C65895775386D6F4F808F3EC33)
Полное имя : M:\Coma.2012.Part.1.720p.WEB-DL.DD5.1.H.264-KiNGS.mkv
Формат : Matroska
Версия формата : Version 2
Размер файла : 2,53 Гбайт
Продолжительность : 1 ч. 17 м.
Общий поток : 4678 Кбит/сек
Название фильма : Кома / Coma (2012)
Дата кодирования : UTC 2016-12-22 13:52:16
Программа кодирования : mkvmerge v8.2.0 ('World of Adventure') 64bit
Библиотека кодирования : libebml v1.3.1 + libmatroska v1.4.2
Видео
Идентификатор : 1
Формат : AVC
Формат/Информация : Advanced Video Codec
Профиль формата : High@L3.1
Параметр CABAC формата : Нет
Параметр ReFrames формата : 2 кадра
Идентификатор кодека : V_MPEG4/ISO/AVC
Продолжительность : 1 ч. 17 м.
Битрейт : 4009 Кбит/сек
Ширина : 1280 пикселей
Высота : 720 пикселей
Соотношение сторон : 16:9
Режим частоты кадров : Постоянный
Частота кадров : 23,976 кадра/сек
Цветовое пространство : YUV
Субдискретизация насыщенности : 4:2:0
Битовая глубина : 8 бит
Тип развёртки : Прогрессивная
Бит/(Пиксели*Кадры) : 0.181
Размер потока : 2,17 Гбайт (86%)
Язык : English
Default : Да
Forced : Нет
Цветовой диапазон : Limited
Основные цвета : BT.709
Характеристики трансфера : BT.709
Коэффициенты матрицы : BT.709
Аудио #1
Идентификатор : 2
Формат : AC-3
Формат/Информация : Audio Coding 3
Расширение режима : CM (complete main)
Параметр Endianness формата : Big
Идентификатор кодека : A_AC3
Продолжительность : 1 ч. 17 м.
Вид битрейта : Постоянный
Битрейт : 192 Кбит/сек
Каналы : 2 канала
Расположение каналов : Front: L R
Частота : 48,0 КГц
Частота кадров : 31,250 кадров/сек (1536 spf)
Метод сжатия : С потерями
Размер потока : 106 Мбайт (4%)
Заголовок : Профессиональный (многоголосый закадровый) ТВ3
Язык : Russian
Default : Да
Forced : Нет
Аудио #2
Идентификатор : 3
Формат : AC-3
Формат/Информация : Audio Coding 3
Расширение режима : CM (complete main)
Параметр Endianness формата : Big
Идентификатор кодека : A_AC3
Продолжительность : 1 ч. 17 м.
Вид битрейта : Постоянный
Битрейт : 384 Кбит/сек
Каналы : 6 каналов
Расположение каналов : Front: L C R, Side: L R, LFE
Частота : 48,0 КГц
Частота кадров : 31,250 кадров/сек (1536 spf)
Метод сжатия : С потерями
Размер потока : 213 Мбайт (8%)
Язык : English
Default : Нет
Forced : Нет
Текст
Идентификатор : 4
Формат : UTF-8
Идентификатор кодека : S_TEXT/UTF8
Идентификатор кодека/Информация : UTF-8 Plain Text
Язык : English
Default : Нет
Forced : Нет

Скриншоты


Вне форума [Профиль] [ЛС]
Показать сообщения:    
Ответить на тему

Текущее время: Сегодня 17:58

Часовой пояс: GMT + 3



Вы не можете начинать темы
Вы не можете отвечать на сообщения
Вы не можете редактировать свои сообщения
Вы не можете удалять свои сообщения
Вы не можете голосовать в опросах
Вы не можете прикреплять файлы к сообщениям
Вы не можете скачивать файлы