Сегодня идет свободное скачивание без начисления Download

Медичи: Правители Флоренции / Medici: Masters of Florence / Сезон: 1 / Серии: 1-2 из 8 (Серджо Мимика-Геззан) [2016, Великобритания, Италия, Исторический, драма, WEBRip 1080p] MVO (Jaskier) + Original

Ответить на тему
 
Автор
Сообщение

Omen ®

Стаж: 6 лет 1 месяц

Сообщений: 184308

Торрент-статистика

Пост 24-Дек-2016 01:00

[Цитировать]

Медичи: Правители Флоренции / Medici: Masters of Florence
Год выпуска: 2016
Страна: Великобритания, Италия
Жанр: Исторический, драма
Продолжительность: ~ 00:50:00
Перевод: Профессиональный (многоголосый закадровый) Jaskier
Режиссёр: Серджо Мимика-Геззан
В ролях: Дастин Хоффман, Гвидо Каприно, Джорджо Капуто, Ричард Мэдден, Стюарт Мартин и другие
Описание: Окунемся в историю, чтобы вновь познакомиться с известными представителями семейства Медичи, которые стали известны своим огромным влиянием и кардинальными взглядами на управление государством и ведение торговли. Клан Медичи в Италии стал самым влиятельным в свое время. Кажется, что эти люди управляли каждым направление общественной и политической жизни страны. Несмотря на свою огромную власть, эти люди обладали стремлением к одухотворению народа и самих себя. Проведя культурную и экономическую революцию в стране, главные герои смогли укрепить позиции Италии на мировой арене и нажить себе море завистников и врагов!
Качество: WEBRip 1080p
Контейнер: MKV
Видео: MPEG-4 AVC, 1920x1038 (1.85:1), 25 fps, ~8400kbps
Аудио: Dolby AC3 48000Hz 5.1 384Kbps Русский
Аудио 2: Dolby AC3 48000Hz 5.1 384Kbps Английский
Субтитры: Английские
Реклама: Отсутствует

Релиз

Khoren2013
Перевод: Профессиональный (многоголосый закадровый) студия Jaskier
Релиз без рекламы

MediaInfo

General
Unique ID : 191965741658664303890864560248509538363 (0x906B41CBC7CA33A681F90850BC5DA03B)
Complete name : D:\Torrent\Medici.Masters.of.Florence.S01.1080p.NF.WEBRip.DD5.1.x264\Medici.Masters.of.Florence.S01E01.Original.Sin.1080p.NF.WEBRip.DD5.1.x264.mkv
Format : Matroska
Format version : Version 4 / Version 2
File size : 3.56 GiB
Duration : 55 min 21 s
Overall bit rate : 9 204 kb/s
Encoded date : UTC 2016-12-23 12:04:14
Writing application : mkvmerge v9.6.0 ('Slave To Your Mind') 64bit
Writing library : libebml v1.3.4 + libmatroska v1.4.5
Cover : Yes
Attachments : cover.medici.jpg
Video
ID : 1
Format : AVC
Format/Info : Advanced Video Codec
Format profile : High@L4.1
Format settings, CABAC : Yes
Format settings, ReFrames : 4 frames
Codec ID : V_MPEG4/ISO/AVC
Duration : 55 min 20 s
Bit rate : 8 436 kb/s
Width : 1 920 pixels
Height : 1 038 pixels
Display aspect ratio : 1.85:1
Frame rate mode : Constant
Frame rate : 25.000 FPS
Color space : YUV
Chroma subsampling : 4:2:0
Bit depth : 8 bits
Scan type : Progressive
Bits/(Pixel*Frame) : 0.169
Stream size : 3.26 GiB (92%)
Writing library : x264 core 144 r2525 40bb568
Encoding settings : cabac=1 / ref=4 / deblock=1:-3:-3 / analyse=0x3:0x133 / me=umh / subme=10 / psy=1 / psy_rd=1.00:0.00 / mixed_ref=1 / me_range=48 / chroma_me=1 / trellis=2 / 8x8dct=1 / cqm=0 / deadzone=21,11 / fast_pskip=1 / chroma_qp_offset=-2 / threads=12 / lookahead_threads=2 / sliced_threads=0 / nr=0 / decimate=1 / interlaced=0 / bluray_compat=0 / constrained_intra=0 / bframes=8 / b_pyramid=2 / b_adapt=2 / b_bias=0 / direct=3 / weightb=1 / open_gop=0 / weightp=2 / keyint=250 / keyint_min=25 / scenecut=40 / intra_refresh=0 / rc=crf / mbtree=0 / crf=17.0 / qcomp=0.60 / qpmin=0 / qpmax=69 / qpstep=4 / ip_ratio=1.30 / pb_ratio=1.20 / aq=3:0.70
Language : English
Default : Yes
Forced : No
Audio #1
ID : 2
Format : AC-3
Format/Info : Audio Coding 3
Mode extension : CM (complete main)
Format settings, Endianness : Big
Codec ID : A_AC3
Duration : 55 min 21 s
Bit rate mode : Constant
Bit rate : 384 kb/s
Channel(s) : 6 channels
Channel positions : Front: L C R, Side: L R, LFE
Sampling rate : 48.0 kHz
Frame rate : 31.250 FPS (1536 spf)
Bit depth : 16 bits
Compression mode : Lossy
Stream size : 152 MiB (4%)
Language : Russian
Default : Yes
Forced : No
Audio #2
ID : 3
Format : AC-3
Format/Info : Audio Coding 3
Mode extension : CM (complete main)
Format settings, Endianness : Big
Codec ID : A_AC3
Duration : 55 min 21 s
Bit rate mode : Constant
Bit rate : 384 kb/s
Channel(s) : 6 channels
Channel positions : Front: L C R, Side: L R, LFE
Sampling rate : 48.0 kHz
Frame rate : 31.250 FPS (1536 spf)
Bit depth : 16 bits
Compression mode : Lossy
Stream size : 152 MiB (4%)
Language : English
Default : No
Forced : No
Text
ID : 4
Format : UTF-8
Codec ID : S_TEXT/UTF8
Codec ID/Info : UTF-8 Plain Text
Duration : 51 min 18 s
Bit rate : 46 b/s
Count of elements : 481
Stream size : 17.6 KiB (0%)
Language : English
Default : No
Forced : No

Скриншоты



Внимание! Раздача ведётся путём добавления новых серий

Внимание! Раздача ведётся путём добавления новых серий; при каждом добавлении создаётся новый торрент. Чтобы начать докачку новой серии, пользователям необходимо сделать следующее:
(1) остановить скачивание,
(2) удалить старый торрент у себя из клиента (старые серии удалять не надо),
(3) скачать новый торрент и запустить его у себя в клиенте вместо старого, при этом указать клиенту путь в старую папку куда и должно происходить скачивание новых серий.
Ваш клиент при этом должен произвести хеширование (проверку) старой папки (если не производит сам - помогите ему сделать это), и будет докачивать только те серии которых у вас ещё нет. Старые серии при этом не удаляются, а продолжают раздаваться!
Eсли вы уже удалили старые серии, то предотвратить повторную закачку старых серий можно, отжав галочку в соответствующих местах при запуске нового торрента. По возможности, желательно не удалять старые серии как можно дольше чтобы релизёр не столько продолжал раздавать старые серии, а смог сконцентрироваться на новых.
Вне форума [Профиль] [ЛС]
Показать сообщения:    
Ответить на тему

Текущее время: Сегодня 18:40

Часовой пояс: GMT + 3



Вы не можете начинать темы
Вы не можете отвечать на сообщения
Вы не можете редактировать свои сообщения
Вы не можете удалять свои сообщения
Вы не можете голосовать в опросах
Вы не можете прикреплять файлы к сообщениям
Вы не можете скачивать файлы