Сегодня идет свободное скачивание без начисления Download

На балконе отеля / Hotel Balcony Sex at the Beach [2016 г., Amateur, Blowjob, Dogging, Creampie, CamRip, 1080p] (Unknown actors)

Ответить на тему
 
Автор
Сообщение

XP1971 ®

Пол:

Стаж: 4 года 9 месяцев

Сообщений: 5308

Торрент-статистика

Пост 21-Дек-2016 21:25

[Цитировать]

На балконе отеля

--Hotel Balcony Sex at the Beach
-Студия: N/A
Режиссер: N/A
Страна: USA
Год выпуска: 2016 г.
Перевод: Отсутствует
Продолжительность: 00:08:07
Оригинальный аудиопоток: английский
Жанр: Amateur, Blowjob, Dogging, Creampie-В ролях:
Unknown actors-Оригинальное описание:
Clean beaches, noisy surf, and only his girlfriend and took...-Описание на русском:
Чистейший пляж, шумит прибой и лишь подругу взял с собой...-
Контейнер: MP4
Аудио кодек: AAC
Видео кодек: AVC
Cубтитры: отсутствуют
Качество видео: CamRip
Стандарт разрешения: 1080p
Аудио: Advanced Audio | 48.0 KHz | 2 ch | 317.0 Kbps
Видео: AVC | 1920х1080 | 10.2 Мbps | 29.97 fps | 0.164 bit/pixel

Media Info

Код:
Общее
Полное имя : Hotel Balcony Sex at the Beach_[/*spam*/].mp4
Формат : MPEG-4
Профиль формата : Base Media / Version 2
Идентификатор кодека : mp42
Размер файла : 612 Мбайт
Продолжительность : 8 м. 7 с.
Режим общего битрейта : Переменный
Общий поток : 10,5 Мбит/сек
Дата кодирования : UTC 2016-10-25 01:37:18
Дата пометки : UTC 2016-10-25 01:37:25
©TIM : 00:00:00:00
©TSC : 30000
©TSZ : 1001
Видео
Идентификатор : 1
Формат : AVC
Формат/Информация : Advanced Video Codec
Профиль формата : [email protected]/*  */
Параметр CABAC формата : Да
Параметр ReFrames формата : 3 кадра
Параметр GOP формата : M=3, N=29
Идентификатор кодека : avc1
Идентификатор кодека/Информация : Advanced Video Coding
Продолжительность : 8 м. 7 с.
Вид битрейта : Переменный
Битрейт : 10,2 Мбит/сек
Максимальный битрейт : 33,0 Мбит/сек
Ширина : 1920 пикселей
Высота : 1080 пикселей
Соотношение сторон : 16:9
Режим частоты кадров : Постоянный
Частота кадров : 29,970 кадров/сек
Стандарт вещания : NTSC
Цветовое пространство : YUV
Субдискретизация насыщенности : 4:2:0
Битовая глубина : 8 бит
Тип развёртки : Чересстрочная
Порядок развёртки : Верхнее поле первое
Бит/(Пиксели*Кадры) : 0.164
Размер потока : 593 Мбайт (97%)
Язык : English
Дата кодирования : UTC 2016-10-25 01:37:18
Дата пометки : UTC 2016-10-25 01:37:18
Цветовой диапазон : Limited
Основные цвета : BT.709
Характеристики трансфера : BT.709
Коэффициенты матрицы : BT.709
Аудио
Идентификатор : 2
Формат : AAC
Формат/Информация : Advanced Audio Codec
Профиль формата : LC
Идентификатор кодека : 40
Продолжительность : 8 м. 7 с.
Продолжительность оригинала : 8 м. 7 с.
Вид битрейта : Переменный
Битрейт : 317 Кбит/сек
Максимальный битрейт : 417 Кбит/сек
Каналы : 2 канала
Расположение каналов : Front: L R
Частота : 48,0 КГц
Метод сжатия : С потерями
Размер потока : 18,4 Мбайт (3%)
Размер потока оригинала : 18,5 Мбайт (3%)
Язык : English
Дата кодирования : UTC 2016-10-25 01:37:18
Дата пометки : UTC 2016-10-25 01:37:18

Скринлист

Скриншоты

                                               

_________________
Вне форума [Профиль] [ЛС]
Показать сообщения:    
Ответить на тему

Текущее время: Сегодня 01:24

Часовой пояс: GMT + 3



Вы не можете начинать темы
Вы не можете отвечать на сообщения
Вы не можете редактировать свои сообщения
Вы не можете удалять свои сообщения
Вы не можете голосовать в опросах
Вы не можете прикреплять файлы к сообщениям
Вы не можете скачивать файлы