Сегодня идет свободное скачивание без начисления Download

Человек в высоком замке / The Man in the High Castle / Сезон 2 / Серии 1-2 (10) (Дэвид Семел) [2016,США, фантастика, триллер, драма, WEBRip 720p] MVO (OMSKBIRD)

Ответить на тему
 
Автор
Сообщение

Omen ®

Стаж: 6 лет 1 месяц

Сообщений: 184308

Торрент-статистика

Пост 18-Дек-2016 01:00

[Цитировать]

-Человек в высоком замке / The Man in the High Castle- Год выпуска • 2016
Страна • США
Жанр • фантастика, триллер, драма
Продолжительность • ~60 мин.
Перевод
• Профессиональный (многоголосый, закадровый) "OMSKBIRD records"-Создатель • Дэвид Семел
В ролях • Алекса Давалос, Руперт Эванс, Люк Клеинтенк, Джоэль де ла Фуэнте, Кэри-Хироюки Тагава, Руфус Сьюэлл, Майкл Рисполи, Джеффри Блейк, Бернхард Форхер и др.-Описание • Германия и Япония выиграли Вторую мировую. Америка разделена пополам между победителями, но, разумеется, спустя много лет после поражения (действие разворачивается в 1962-м) сознательные американцы организуют глубоко засекреченное подполье. Занимаются повстанцы в основном распространением странной кинохроники, на которой показана победа в войне союзнических войск. Именно с этими пленками в руках в нейтральную зону между двумя Америками отправляются Джо и Джулс — юноша и девушка, пробующие свои силы в борьбе с режимом.-ПереводОксана Графутко, Иван Человеков, Татьяна Масаковская
Роли озвучивалиПавел Ярощик, Алексей Гнеушев, Семен Ващенко, Ольга Федорова
ЗвукорежиссерПавел Квентов
ПостерКсения Просветова
Релиз подготовилGater-Внимание! Реклама: аудио (два раза, в начале и конце, по 15 сек.)-
Качество: WEBRip 720p
Формат: MKV
Видео: MPEG-4 AVC / ~ 2800 kbps / 1280:720p / 23.976 fps / 16:9 / ~ 0.130 bit/pixel / High Level 4.1
Аудио:
Русский / Dolby Digital 5.1 / 48 kHz / 384 kbps
English / Dolby Digital 5.1 / 48 kHz / 384 kbps
Субтитры:нет-

-

Скриншоты

-

MediaInfo


General
Unique ID : 207389956347030067487029487087463250600 (0x9C05DA4B29A2003EB1240E3696D13AA8)
Complete name : F:\Мои Документы\Видео\РАЗДАЧИ\ЧВЗ\The Man in the High Castle S02 WEBRip 720p (OMSKBIRD)\The Man in the High Castle S02E01 WEBRip 720p (OMSKBIRD).mkv
Format : Matroska
Format version : Version 2
File size : 1.47 GiB
Duration : 57mn 4s
Overall bit rate : 3 677 Kbps
Encoded date : UTC 2016-12-16 20:32:38
Writing application : mkvmerge v4.0.0 ('The Stars were mine') сборка от Jun 6 2010 16:18:42
Writing library : libebml v1.0.0 + libmatroska v1.0.0
Video
ID : 1
Format : AVC
Format/Info : Advanced Video Codec
Format profile : High@L4.1
Format settings, CABAC : Yes
Format settings, ReFrames : 9 frames
Codec ID : V_MPEG4/ISO/AVC
Duration : 57mn 4s
Bit rate : 2 836 Kbps
Width : 1 280 pixels
Height : 720 pixels
Display aspect ratio : 16:9
Frame rate : 23.976 fps
Color space : YUV
Chroma subsampling : 4:2:0
Bit depth : 8 bits
Scan type : Progressive
Bits/(Pixel*Frame) : 0.128
Stream size : 1.13 GiB (77%)
Writing library : x264 core 148 r2744+8 b97ae06 / tmod bb0ae40 X86_64
Encoding settings : cabac=1 / ref=9 / deblock=1:-3:-3 / analyse=0x3:0x113 / me=umh / subme=10 / psy=1 / fade_compensate=0.00 / psy_rd=1.05:0.15 / mixed_ref=1 / me_range=48 / chroma_me=1 / trellis=2 / 8x8dct=1 / cqm=0 / deadzone=6,6 / fast_pskip=0 / chroma_qp_offset=-3 / threads=22 / lookahead_threads=3 / sliced_threads=0 / nr=0 / decimate=0 / interlaced=0 / bluray_compat=0 / constrained_intra=0 / fgo=0 / bframes=9 / b_pyramid=2 / b_adapt=2 / b_bias=0 / direct=3 / weightb=1 / open_gop=0 / weightp=2 / keyint=250 / keyint_min=23 / scenecut=40 / intra_refresh=0 / rc=crf / mbtree=0 / crf=18.0000 / qcomp=0.70 / qpmin=0:0:0 / qpmax=69:69:69 / qpstep=4 / ip_ratio=1.10 / pb_ratio=1.10 / aq=3:0.65 / aq-sensitivity=10.00 / aq-factor=1.00:1.00:1.00 / aq2=0 / aq3=0
Language : English
Default : No
Forced : No
Audio #1
ID : 2
Format : AC-3
Format/Info : Audio Coding 3
Mode extension : CM (complete main)
Format settings, Endianness : Big
Codec ID : A_AC3
Duration : 57mn 4s
Bit rate mode : Constant
Bit rate : 384 Kbps
Channel(s) : 6 channels
Channel positions : Front: L C R, Side: L R, LFE
Sampling rate : 48.0 KHz
Bit depth : 16 bits
Compression mode : Lossy
Stream size : 157 MiB (10%)
Language : Russian
Default : Yes
Forced : No
Audio #2
ID : 3
Format : AC-3
Format/Info : Audio Coding 3
Mode extension : CM (complete main)
Format settings, Endianness : Big
Codec ID : A_AC3
Duration : 57mn 4s
Bit rate mode : Constant
Bit rate : 384 Kbps
Channel(s) : 6 channels
Channel positions : Front: L C R, Side: L R, LFE
Sampling rate : 48.0 KHz
Bit depth : 16 bits
Compression mode : Lossy
Stream size : 157 MiB (10%)
Language : English
Default : No
Forced : No

Внимание! Раздача ведётся путём добавления новых серий.

Внимание! Раздача ведётся путём добавления новых серий; при каждом добавлении создётся новый торрент. Чтобы начать докачку новой серии, пользователям необходимо сделать следующее:
Остановить скачивание.
Удалить старый торрент у себя из клиента (старые серии удалять не надо).
Скачать новый торрент и запустить его у себя в клиенте вместо старого, при этом указать клиенту путь в старую папку куда и должно происходить скачивание новых серий.
Ваш клиент при этом должен произвести хеширование (проверку) старой папки (если не производит сам - помогите ему сделать это), и будет докачивать только те серии которых у вас ещё нет. Старые серии при этом не удаляются, а продолжают раздаваться!
Eсли вы уже удалили старые серии, то предотвратить повторную закачку старых серий можно, отжав галочку в соответсвующих местах при запуске нового торрента. По возможности, желательно не удалять старые серии как можно дольше чтобы релизёр не столько продолжал раздавать старые серии, а смог сконцентрироваться на новых.
Вне форума [Профиль] [ЛС]
Похожие темы
Форум Тема Автор Торрент Отв. Посл. сообщение
./templates/default/images/folder_dl.gif Компьютерная литература Михаил Пантаев | Матанализ с человеческим лицом, или Как выжить после предельного перехода. Полный курс математического анализа. Том 2 (2016) [PDF] moralis
1 | 0

0 | 2041

18

2016-03-09 21:50
moralis Последнее
./templates/default/images/folder_dl.gif Справочники, энциклопедии и словари Михаил Пантаев | Матанализ с человеческим лицом, или Как выжить после предельного перехода. Полный курс математического анализа. Том 1 (2015) [PDF] moralis
1 | 0

0 | 1974

14

2016-03-09 21:51
moralis Последнее
./templates/default/images/folder_dl.gif Обучающее видео Александр Чалдрян | Ask a Pro. Photoshop: на что способен человек? (2015) WEB-DL [H.264] moralis
1 | 0

0 | 408

8

2016-04-03 14:28
moralis Последнее
./templates/default/images/folder_dl.gif Философия, Религия, Эзотерика Дугин А.Г. - Ноомахия. Войны ума. Германский Логос. Человек апофатический. [2015, DjVu, RUS] Omen
1 | 0

0 | 978

0

2016-09-18 01:01
Omen Последнее
./templates/default/images/folder_dl.gif Новинки (HD|DVD|BD|WEB|TV|SAT|PDTV|-Rip) Человек-муравей и Оса / Ant-Man and the Wasp (Пейтон Рид) [2018 г., фантастика, боевик, приключения, WEBRip] DUB | Звук с TS Theseus
1 | 0

0 | 517

10

2018-08-30 11:07
Theseus Последнее
./templates/default/images/folder_dl.gif Новинки (HD|DVD|BD|WEB|TV|SAT|PDTV|-Rip) Человек-муравей и Оса / Ant-Man and the Wasp (Пейтон Рид) [2018 г., фантастика, боевик, приключения, WEBRip 720p] DUB | Чистый звук Theseus
1 | 0

0 | 637

12

2018-10-01 18:51
Theseus Последнее
Показать сообщения:    
Ответить на тему

Текущее время: Сегодня 18:39

Часовой пояс: GMT + 3



Вы не можете начинать темы
Вы не можете отвечать на сообщения
Вы не можете редактировать свои сообщения
Вы не можете удалять свои сообщения
Вы не можете голосовать в опросах
Вы не можете прикреплять файлы к сообщениям
Вы не можете скачивать файлы