Today is a free download without charge Download

Битва экстрасенсов (2016.12.17) SATRip (сезон 17, выпуск 16)

Reply to topic
 
Author
Message

}{@R0N ®

Longevity: 4 years 1 month

Posts: 7614

Торрент-статистика

Post 17-Dec-2016 23:16

[Quote]

Битва экстрасенсов (2016.12.17) SATRip (сезон 17, выпуск 16)- Телекомпания: ТНТ
Жанр: Телепередача
Ведущий: Марат Башаров
Описание:
С 3 сентября на ТНТ стартует долгожданный 17-й сезон «Битвы экстрасенсов» — самого мистического, непредсказуемого и загадочного проекта российского ТВ. Масштабный кастинг, новые яркие участники и высокие технологии в мире экстрасенсорики. Новый сезон обещает стать самым необычным и удивительным в истории шоу. «Мне бы очень хотелось, чтобы в новом сезоне экстрасенсы поменьше обращали бы внимание на свою самореализацию, а больше помогали людям. Ведь каждый сезон к нам обращаются те, кто действительно ждет помощи. И это, по-моему, для людей со сверхспособностями должно быть приоритетным!», — Марат Башаров, ведущий проекта.

Возраст: 16+ (зрителям, достигшим 16 лет)
Продолжительность: 01:10:56
Качество видео: SATRip
Видео: XviD, 720x400, ~1799 kb/s
Аудио: MP3, 2 ch, 128 kb/s, CBR

MI

Код:
Общее
Полное имя                               : D:\Битва экстрасенсов. Сезон 17. Выпуск 16 (2016.12.17) SATRip.avi
Формат                                   : AVI
Формат/Информация                        : Audio Video Interleave
Размер файла                             : 985 Мбайт
Продолжительность                        : 1 ч. 10 м.
Общий поток                              : 1938 Кбит/сек
Видео
Идентификатор                            : 0
Формат                                   : MPEG-4 Visual
Профиль формата                          : Advanced Simple@L5
Параметр BVOP формата                    : 2
Параметр QPel формата                    : Нет
Параметр GMC формата                     : Без точки перехода
Параметр матрицы формата                 : Default (H.263)
Идентификатор кодека                     : XVID
Идентификатор кодека/Подсказка           : XviD
Продолжительность                        : 1 ч. 10 м.
Битрейт                                  : 1799 Кбит/сек
Ширина                                   : 720 пикселей
Высота                                   : 400 пикселей
Соотношение сторон                       : 16:9
Частота кадров                           : 25,000 кадров/сек
Цветовое пространство                    : YUV
Субдискретизация насыщенности            : 4:2:0
Битовая глубина                          : 8 бит
Тип развёртки                            : Прогрессивная
Метод сжатия                             : С потерями
Бит/(Пиксели*Кадры)                      : 0.250
Размер потока                            : 889 Мбайт (93%)
Библиотека кодирования                   : XviD 1.2.1 (UTC 2008-12-04)
Аудио
Идентификатор                            : 1
Формат                                   : MPEG Audio
Версия формата                           : Version 1
Профиль формата                          : Layer 3
Режим                                    : Joint stereo
Расширение режима                        : MS Stereo
Идентификатор кодека                     : 55
Идентификатор кодека/Подсказка           : MP3
Продолжительность                        : 1 ч. 10 м.
Вид битрейта                             : Постоянный
Битрейт                                  : 128 Кбит/сек
Каналы                                   : 2 канала
Частота                                  : 48,0 КГц
Метод сжатия                             : С потерями
Размер потока                            : 63,3 Мбайт (7%)
Выравнивание                             : Соединение по промежуткам
Продолжительность промежутка             : 24  мс. (0,60 видеокадр)
Библиотека кодирования                   : LAME3.99r
Настройки программы                      : -m j -V 4 -q 9 -lowpass 17 -b 128
Скриншоты:        
Other forum [Profile] [PM]
Similar theme
Forum Topic Author Torrent Replies Last Post
./templates/default/images/folder_dl.gif RePack Transformers: Rise of the Dark Spark / Трансформеры: Битва за Тёмную Искру v.1.0.0+4dlc (2014) [Ru/En] Repack R.G. Механики sashau
1 | 0

0 | 2450

26

2014-06-27 13:27
sashau Latest
./templates/default/images/folder_dl.gif Фильмы 2011-2019 Дед Мороз. Битва Магов (Александр Войтинский) [2016 г., Фэнтези, семейный, приключения, WEB-DLRip] [iTunes] Omen
1 | 0

0 | 1240

10

2016-03-09 15:46
Omen Latest
Display posts from previous:    
Reply to topic

The time now is: Today 13:53

All times are GMT + 3 Hours



You cannot post new topics in this forum
You cannot reply to topics in this forum
You cannot edit your posts in this forum
You cannot delete your posts in this forum
You cannot vote in polls in this forum
You cannot attach files in this forum
You cannot download files in this forum