Сегодня идет свободное скачивание без начисления Download

Доктор Шанс / Chance / Сезон: 1 / Серии: 1-10 из 10 (Дэниэл Эттиэс, Леонард Абрахамсон, Майкл Леманн) [2016, США, триллер, драма, детектив,WEBRip 720p] MVO (NewStudio) + Original + Eng Subs

Ответить на тему
 
Автор
Сообщение

Omen ®

Стаж: 5 лет 6 месяцев

Сообщений: 186946

Торрент-статистика

Пост 17-Дек-2016 01:00

[Цитировать]

Доктор Шанс / Chance Год выпуска: 2016
Страна: США
Жанр: триллер, драма, детектив
Продолжительность: ~ 0:50:00
Перевод: Профессиональный многоголосый закадровый) NewStudio
Режиссёр: Дэниэл Эттиэс, Леонард Абрахамсон, Майкл Леманн
В ролях: Хью Лори, Дайан Фарр, Лиза Гэй Хэмилтон, Стефания Оуэн, Грета Ли, Гретчен Мол, Пол Адельштейн, Итан Сапли, Кларк Питерс и др.
Описание: В центре внимания оказывается персонаж, роль которого сыграл Хью Лори. Элдон Чэнс - нейропсихиатр, который работает на судебную организацию. Этот человек оказывается в эпицентре конфликта, связанного с коррупцией в правящих рядах. Главному герою приходится перейти через черту своих профессиональных обязательств ради просьбы одной безумно привлекательной пациентки. Однако вскоре несчастный Ченс попадает в разработку супруга этой женщины. Тот - полицейский, который считается одним из самых жестких и жестоких в своей профессии.

Качество: WEBRip 720p
Формат: MKV
Видео: AVC/H.264, 1280x720 (16:9), ~1868 Kbps, 25 fps
Аудио: AC3, 192 kbps, 2 ch, 48 kHz [Rus]
Аудио 2: AC3, 192 kbps, 2 ch, 48 kHz [Eng]
Субтитры: английские
Релиз без рекламы-

MediaInfo

Общее
Chance - Чанс. Сезон 1. NewStudio. 720p\Chance.s01e01.WEBRip.720p.NewStudio.mkv
Формат : Matroska
Версия формата : Version 4 / Version 2
Размер файла : 827 Мбайт
Продолжительность : 50 м.
Общий поток : 2297 Кбит/сек
Название фильма : Chance s01e01
Дата кодирования : UTC 2016-10-22 04:57:09
Программа кодирования : mkvmerge v6.9.1 ('Blue Panther') 64bit built on Apr 18 2014 18:23:38
Библиотека кодирования : libebml v1.3.0 + libmatroska v1.4.1
Видео
Идентификатор : 1
Формат : AVC
Формат/Информация : Advanced Video Codec
Профиль формата : High@L3.1
Параметр CABAC формата : Да
Параметр ReFrames формата : 5 кадров
Идентификатор кодека : V_MPEG4/ISO/AVC
Продолжительность : 50 м.
Битрейт : 1868 Кбит/сек
Ширина : 1280 пикселей
Высота : 720 пикселей
Соотношение сторон : 16:9
Режим частоты кадров : Постоянный
Частота кадров : 23,976 кадра/сек
Цветовое пространство : YUV
Субдискретизация насыщенности : 4:2:0
Битовая глубина : 8 бит
Тип развёртки : Прогрессивная
Бит/(Пиксели*Кадры) : 0.085
Размер потока : 673 Мбайт (81%)
Язык : English
Default : Да
Forced : Нет
Аудио #1
Идентификатор : 2
Формат : AC-3
Формат/Информация : Audio Coding 3
Расширение режима : CM (complete main)
Параметр Endianness формата : Big
Идентификатор кодека : A_AC3
Продолжительность : 50 м.
Вид битрейта : Постоянный
Битрейт : 192 Кбит/сек
Каналы : 2 канала
Расположение каналов : Front: L R
Частота : 48,0 КГц
Битовая глубина : 16 бит
Метод сжатия : С потерями
Размер потока : 69,1 Мбайт (8%)
Язык : Russian
Default : Да
Forced : Нет
Аудио #2
Идентификатор : 3
Формат : AC-3
Формат/Информация : Audio Coding 3
Расширение режима : CM (complete main)
Параметр Endianness формата : Big
Идентификатор кодека : A_AC3
Продолжительность : 50 м.
Вид битрейта : Постоянный
Битрейт : 192 Кбит/сек
Каналы : 2 канала
Расположение каналов : Front: L R
Частота : 48,0 КГц
Битовая глубина : 16 бит
Метод сжатия : С потерями
Размер потока : 69,1 Мбайт (8%)
Язык : English
Default : Нет
Forced : Нет
Текст
Идентификатор : 4
Формат : UTF-8
Идентификатор кодека : S_TEXT/UTF8
Идентификатор кодека/Информация : UTF-8 Plain Text
Язык : English
Default : Нет
Forced : Нет

Скриншоты

Список серий

01. The Original / Оригинал
02. Chestnut / Банальный сюжет
03. The Stray / Бродяга
04. Dissonance Theory / Теория Диссонанса
05. Contrapasso / Воздаяние
06. The Adversary
07. Trompe L'Oeil / Обман зрения
08. Trace Decay / Признаки разложения
09. The Well-Tempered Clavier / Хорошо темперированный клавир
10. The Bicameral Mind / Бикамеральный разум
Вне форума [Профиль] [ЛС]
Показать сообщения:    
Ответить на тему

Текущее время: Сегодня 03:17

Часовой пояс: GMT + 3



Вы не можете начинать темы
Вы не можете отвечать на сообщения
Вы не можете редактировать свои сообщения
Вы не можете удалять свои сообщения
Вы не можете голосовать в опросах
Вы не можете прикреплять файлы к сообщениям
Вы не можете скачивать файлы