Сегодня идет свободное скачивание без начисления Download

Крик Королевы / Scream Queen (SexAndSubmission / Kink) [2016 г., Rough Sex, Anal, Deep Throating, Hardcore, BDSM, SiteRip] (Lauren Phillips)

Ответить на тему
 
Автор
Сообщение

XP1971 ®

Пол:

Стаж: 4 года 9 месяцев

Сообщений: 5288

Торрент-статистика

Пост 13-Дек-2016 07:55

[Цитировать]

-Крик Королевы

Scream Queen
Страна: USA
Режиссер: N/A
Год выпуска: 2016 г.
Перевод: Отсутствует
Продолжительность: 00:52:34
Студия: SexAndSubmission / Kink
Оригинальный аудиопоток: английский
Жанр: Rough Sex, Anal, Deep Throating, Hardcore, BDSM-В ролях:
Lauren Phillips-Оригинальное описание:
This sad story about a girl foreign production Lauren. She lived to himself, not grieved, and all dreamed of sex, of Islands brilliant I was brilliant I froze flies when she will fight like no tale to write no pen to poschekotat. He decided the girl, Lauren, came the announcement. Oppa, and she's already tied up, mouth a red ball on the elastic band and someone fuck her girlish ass. Dreams come true Lauren wholly, and isn't that the ultimate goal of any movies about love?-Описание на русском:
Эта печальная история о девушке иностранного производства Лорен. Жила она себе, не тужила, а всё мечтала о таком сексе, штобэ вах было, штобэ замерли мухи когда её будут драть так, как ни в сказке написать ни пером пасчекотать. И решилась девка Лорен, пришла по объявлению. Оппа, и она уже связана, во рту красный шарик на резинке и кто-то сношает её девичью попку. Сбылись мечты Лорен сполна, а не это ли конечная цель любого кино про любовь?-

Контейнер: MP4
Аудио кодек: AAC
Cубтитры: отсутствуют
Качество видео: SiteRip
Видео кодек: MPEG4 AVC
Аудио: Advanced Audio | 44.1 KHz | 2 ch | 128.0 Kbps
Видео: AVC | 640x360 | 700 Кbps | 29.97 fps | 0.101 bit/pixel

Media Info

Код:
Общее
Полное имя : Scream Queen_[/*spam*/].mp4
Формат : MPEG-4
Идентификатор кодека : M4V
Размер файла : 313 Мбайт
Продолжительность : 52 м.
Режим общего битрейта : Переменный
Общий поток : 832 Кбит/сек
Дата кодирования : UTC 2016-10-21 01:27:54
Дата пометки : UTC 2016-10-21 01:27:54
Видео
Идентификатор : 1
Формат : AVC
Формат/Информация : Advanced Video Codec
Профиль формата : [email protected]/*  */
Параметр CABAC формата : Нет
Параметр ReFrames формата : 1 кадр
Идентификатор кодека : avc1
Идентификатор кодека/Информация : Advanced Video Coding
Продолжительность : 52 м.
Вид битрейта : Постоянный
Битрейт : 700 Кбит/сек
Максимальный битрейт : 1442 Кбит/сек
Ширина : 640 пикселей
Высота : 360 пикселей
Соотношение сторон : 16:9
Режим частоты кадров : Постоянный
Частота кадров : 29,970 кадров/сек
Цветовое пространство : YUV
Субдискретизация насыщенности : 4:2:0
Битовая глубина : 8 бит
Тип развёртки : Прогрессивная
Бит/(Пиксели*Кадры) : 0.101
Размер потока : 263 Мбайт (84%)
Дата кодирования : UTC 2016-10-21 01:27:54
Дата пометки : UTC 2016-10-21 01:27:54
Аудио
Идентификатор : 2
Формат : AAC
Формат/Информация : Advanced Audio Codec
Профиль формата : LC
Идентификатор кодека : 40
Продолжительность : 52 м.
Вид битрейта : Переменный
Битрейт : 128 Кбит/сек
Максимальный битрейт : 138 Кбит/сек
Каналы : 2 канала
Расположение каналов : Front: L R
Частота : 44,1 КГц
Метод сжатия : С потерями
Размер потока : 47,3 Мбайт (15%)
Дата кодирования : UTC 2016-10-21 01:27:54
Дата пометки : UTC 2016-10-21 01:27:54

Скринлист

Скриншоты

                                                                                               

_________________
Вне форума [Профиль] [ЛС]
Показать сообщения:    
Ответить на тему

Текущее время: Сегодня 06:22

Часовой пояс: GMT + 3



Вы не можете начинать темы
Вы не можете отвечать на сообщения
Вы не можете редактировать свои сообщения
Вы не можете удалять свои сообщения
Вы не можете голосовать в опросах
Вы не можете прикреплять файлы к сообщениям
Вы не можете скачивать файлы