Today is a free download without charge Download

Ледокол (Николай Хомерики) [2016, Россия, Драма, фильм-катастрофа, приключения, BDRip 1080p] (Лицензия) + Original (Rus)

Reply to topic
 
Author
Message

Omen ®

Longevity: 7 years 1 month

Posts: 181090

Торрент-статистика

Post 11-Dec-2016 01:00

[Quote]

Ледокол
Страна: Россия
Студия: Профит
Жанр: Драма, фильм-катастрофа, приключения
Год выпуска: 2016
Продолжительность: 02:03:57
Перевод: Не требуется Лицензия
Cубтитры: нет
Оригинальная аудиодорожка: русский
Режиссер: Николай Хомерики
В ролях: Пётр Фёдоров, Сергей Пускепалис, Анна Михалкова, Ольга Смирнова (II), Александр Яценко, Александр Паль, Виталий Хаев, Алексей Барабаш, Дмитрий Муляр, Артур Чиргадзе
Описание: Основано на реальных событиях. 1985 год. Навстречу ледоколу «Михаил Громов» движется огромный айсберг. Уходя от столкновения с ним, судно попадает в ледовый плен и оказывается в вынужденном дрейфе вблизи побережья Антарктиды. Вокруг зловещая тишина и жуткий холод. Горючее на исходе… Нервы на пределе… И даже если можно было бы уйти — деваться все равно некуда. У командования ледокола нет права на ошибку. Одно неверное решение — и тяжелые льды раздавят судно...

Тип релиза: BDRip 1080p
Контейнер: MKV
Видео: MPEG-4 AVC, 11,1 Мбит/сек, 1920x804, 24,000 fps
Аудио: DTS, 1509 kb/s (6 ch), 48 kHz |Оригинал|

MediaInfo

ОбщееУникальный идентификатор : 226382214625314619507935774481165239967 (0xAA4FA0EC158EBA39BE652433F5A6C69F)Полное имя : E:\Ledokol.2016.1080p.BluRay.Rus.HDCLUB.mkvФормат : MatroskaВерсия формата : Version 2Размер файла : 11,2 ГбайтПродолжительность : 2 ч. 3 м.Общий поток : 12,9 Мбит/секНазвание фильма : Ledokol (2016) - Release for HDCLUBДата кодирования : UTC 2016-12-10 09:41:27Программа кодирования : mkvmerge v3.4.0 ('Rapunzel') built on May 15 2010 09:38:20Библиотека кодирования : libebml v0.8.0 + libmatroska v0.9.0
ВидеоИдентификатор : 1Формат : AVCФормат/Информация : Advanced Video CodecПрофиль формата : High@L4.1Параметр CABAC формата : ДаПараметр ReFrames формата : 5 кадровИдентификатор кодека : V_MPEG4/ISO/AVCПродолжительность : 2 ч. 3 м.Битрейт : 11,1 Мбит/секШирина : 1920 пикселейВысота : 804 пикселяСоотношение сторон : 2,40:1Режим частоты кадров : ПостоянныйЧастота кадров : 24,000 кадра/секЦветовое пространство : YUVСубдискретизация насыщенности : 4:2:0Битовая глубина : 8 битТип развёртки : ПрогрессивнаяБит/(Пиксели*Кадры) : 0.300Размер потока : 9,64 Гбайт (86%)Заголовок : Ledokol (2016) - Release for HDCLUBБиблиотека кодирования : x264 core 148 r2744 b97ae06Настройки программы : cabac=1 / ref=5 / deblock=1:-3:-3 / analyse=0x3:0x133 / me=umh / subme=11 / psy=1 / psy_rd=1.00:0.00 / mixed_ref=1 / me_range=48 / chroma_me=1 / trellis=2 / 8x8dct=1 / cqm=0 / deadzone=21,11 / fast_pskip=0 / chroma_qp_offset=-2 / threads=24 / lookahead_threads=6 / sliced_threads=0 / nr=0 / decimate=1 / interlaced=0 / bluray_compat=0 / constrained_intra=0 / bframes=10 / b_pyramid=2 / b_adapt=2 / b_bias=0 / direct=1 / weightb=1 / open_gop=0 / weightp=2 / keyint=240 / keyint_min=24 / scenecut=40 / intra_refresh=0 / rc_lookahead=60 / rc=crf / mbtree=0 / crf=17.5 / qcomp=0.60 / qpmin=0 / qpmax=69 / qpstep=4 / vbv_maxrate=50000 / vbv_bufsize=62500 / crf_max=0.0 / nal_hrd=none / filler=0 / ip_ratio=1.35 / pb_ratio=1.25 / aq=3:0.80Язык : RussianDefault : ДаForced : Нет
АудиоИдентификатор : 2Формат : DTSФормат/Информация : Digital Theater SystemsРежим : 16Параметр Endianness формата : BigИдентификатор кодека : A_DTSПродолжительность : 2 ч. 3 м.Вид битрейта : ПостоянныйБитрейт : 1509 Кбит/секКаналы : 6 каналовРасположение каналов : Front: L C R, Side: L R, LFEЧастота : 48,0 КГцЧастота кадров : 93,750 кадра/сек (512 spf)Битовая глубина : 24 битМетод сжатия : С потерямиРазмер потока : 1,31 Гбайт (12%)Заголовок : DTS 5.1 @ 1536 kbpsЯзык : RussianDefault : ДаForced : Нет
Меню00:00:00.000 : en:100:01:27.667 : en:200:14:46.833 : en:300:29:43.208 : en:400:43:48.375 : en:501:00:09.125 : en:601:14:15.625 : en:701:29:17.625 : en:801:47:28.042 : en:9

Скриншоты

Other forum [Profile] [PM]
Display posts from previous:    
Reply to topic

The time now is: Today 10:58

All times are GMT + 3 Hours



You cannot post new topics in this forum
You cannot reply to topics in this forum
You cannot edit your posts in this forum
You cannot delete your posts in this forum
You cannot vote in polls in this forum
You cannot attach files in this forum
You cannot download files in this forum