Сегодня идет свободное скачивание без начисления Download

Моника Бенц / Pussy Love (Alex Conte / BitchesAbroad / PornDoePremium) [2016 г., Hardcore, Dogging, Blowjob, SiteRip, 480p] (Monika Benz)

Ответить на тему
 
Автор
Сообщение

XP1971 ®

Пол:

Стаж: 4 года 9 месяцев

Сообщений: 5317

Торрент-статистика

Пост 10-Дек-2016 20:18

[Цитировать]

-Моника Бенц / Pussy Love -- Страна: USA
Год выпуска: 2016 г.
Режиссер: Alex Conte
Перевод: Отсутствует
Продолжительность: 00:28:13
Жанр: Hardcore, Dogging, Blowjob
Оригинальный аудиопоток: английский
Студия: BitchesAbroad / PornDoePremium-В ролях:
Monika Benz-Оригинальное описание:
A video about how farm girl Monica first came to the big city with his comadem. Well strapped, and where to go does not know. And rolled your chumadan live on the streets, looking at where the hostel a thread. Fuck local while drinking juice in the hood noticed the same that Monica had caught up and was invited for a Cup of coffee. The flowers she bought, all that stuff. Surprise Monica's mouth opened KAG post jaschik, oppa, and his mouth she is already a member of this good uncle. Have otselic it appears Monica, sit, relax. Flowers taps, sniffed and threw them down. Happiness is not in them, and in shorts Monica appeared. With what all and congratulations download.-Описание на русском:
Ролик о том, как колхозница Моника в первый раз приехала в большой город со своим чюмаданом. Ну примотала, а куда идти не знает. И покатила свой чюмадан прям по улицам, разглядывая где тут хостел какой-нить. А мачо местный, попивая сок у себя в квартале заприметил-таки эту Монику, догнал и пригласил на чашку кофе. Цветочки ей купил, все дела. От удивления у Моники рот открылся каг почтовый ясчик, оппа, а во рту у неё уже член этого доброго дяди. Отшпилил он значится Монику, сидят, отдыхают. Цветочки потеребили, понюхали да и выбросили их нахер. Счастье не в них, а в трусах у Моники оказалось. С чем всех скачавших и поздравляю.-
Контейнер: MP4
Аудио кодек: AAC
Видео кодек: AVC
Cубтитры: отсутствуют
Качество видео: SiteRip
Стандарт разрешения: 480p
Аудио: Advanced Audio | 44.1 KHz | 2 ch | 128.0 Kbps
Видео: AVC | 854х480 | 2000 Кbps | 29.97 fps | 0.163 bit/pixel

Media Info

Код:
Общее
Полное имя : Monika Benz_[/*spam*/].mp4
Формат : MPEG-4
Профиль формата : Base Media
Идентификатор кодека : isom
Размер файла : 431 Мбайт
Продолжительность : 28 м.
Общий поток : 2135 Кбит/сек
Программа кодирования : Lavf55.33.100
Авторское право : "Bitches Abroad"
Видео
Идентификатор : 1
Формат : AVC
Формат/Информация : Advanced Video Codec
Профиль формата : [email protected]/*  */
Параметр CABAC формата : Да
Параметр ReFrames формата : 6 кадров
Идентификатор кодека : avc1
Идентификатор кодека/Информация : Advanced Video Coding
Продолжительность : 28 м.
Битрейт : 2000 Кбит/сек
Ширина : 854 пикселя
Высота : 480 пикселей
Соотношение сторон : 16:9
Соотношение сторон в оригинале : 16:9
Режим частоты кадров : Постоянный
Частота кадров : 29,970 кадров/сек
Цветовое пространство : YUV
Субдискретизация насыщенности : 4:2:0
Битовая глубина : 8 бит
Тип развёртки : Прогрессивная
Бит/(Пиксели*Кадры) : 0.163
Размер потока : 404 Мбайт (94%)
Библиотека кодирования : x264 core 129 r2230 1cffe9f
Настройки программы : cabac=1 / ref=6 / deblock=1:0:0 / analyse=0x3:0x113 / me=hex / subme=7 / psy=1 / psy_rd=1.00:0.00 / mixed_ref=1 / me_range=16 / chroma_me=1 / trellis=1 / 8x8dct=1 / cqm=0 / deadzone=21,11 / fast_pskip=1 / chroma_qp_offset=-2 / threads=16 / lookahead_threads=2 / sliced_threads=0 / nr=0 / decimate=1 / interlaced=0 / bluray_compat=0 / constrained_intra=0 / bframes=3 / b_pyramid=2 / b_adapt=1 / b_bias=0 / direct=1 / weightb=1 / open_gop=0 / weightp=2 / keyint=90 / keyint_min=9 / scenecut=40 / intra_refresh=0 / rc_lookahead=40 / rc=2pass / mbtree=1 / bitrate=2000 / ratetol=1.0 / qcomp=0.60 / qpmin=0 / qpmax=69 / qpstep=4 / cplxblur=20.0 / qblur=0.5 / ip_ratio=1.41 / aq=1:1.00
Аудио
Идентификатор : 2
Формат : AAC
Формат/Информация : Advanced Audio Codec
Профиль формата : LC
Идентификатор кодека : 40
Продолжительность : 28 м.
Duration_LastFrame : -10 мс.
Вид битрейта : Постоянный
Битрейт : 128 Кбит/сек
Каналы : 2 канала
Расположение каналов : Front: L R
Частота : 44,1 КГц
Метод сжатия : С потерями
Размер потока : 25,8 Мбайт (6%)

Скринлист

Скриншоты

                                         

_________________
Вне форума [Профиль] [ЛС]
Показать сообщения:    
Ответить на тему

Текущее время: Сегодня 12:46

Часовой пояс: GMT + 3



Вы не можете начинать темы
Вы не можете отвечать на сообщения
Вы не можете редактировать свои сообщения
Вы не можете удалять свои сообщения
Вы не можете голосовать в опросах
Вы не можете прикреплять файлы к сообщениям
Вы не можете скачивать файлы