Сегодня идет свободное скачивание без начисления Download

Расплата за халявный вай фай / Her Porn Urges (Euro Teen Erotica) [2015 г., Anal Sex, Hardcore, Teens, SiteRip] (Mona Kim & Choky Ice)

Ответить на тему
 
Автор
Сообщение

XP1971 ®

Пол:

Стаж: 4 года 9 месяцев

Сообщений: 5317

Торрент-статистика

Пост 10-Дек-2016 20:02

[Цитировать]

-Расплата за халявный вай фай-- --Her Porn Urges Страна: USA
Режиссер: N/A
Год выпуска: 2015 г.
Перевод: Отсутствует
Студия: Euro Teen Erotica
Продолжительность: 00:34:52
Жанр: Anal Sex, Hardcore, Teens
Оригинальный аудиопоток: английский-В ролях:
Mona Kim & Choky Ice-Оригинальное описание:
Mona Kim was going to study on her laptop today, but instead ends up looking at erotica. It’s a good thing her boyfriend Choky Ice is around, because it only takes a little porn to get her ready for sex, as you’ll see in this new exclusive video.-Описание на русском:
Пока значит хозяин пшол покакать, приглашённая в гости девка полезла по своим соц. сетям с его нубука. Приходит хозяин нубука обратно - тваюждивизию, а кто платить будет за вай фай, а? А у девки из оплаты с собой только жёппа. Пришлось оплатить своим задом на месяц вперёд.-
Контейнер: MP4
Аудио кодек: AAC
Видео кодек: AVC
Cубтитры: отсутствуют
Качество видео: SiteRip
Аудио: Advanced Audio | 48.0 KHz | 2 ch | 192.0 Kbps
Видео: Adv. Video | 640х360 | 1200 Kbps | 29.97 fps | 0.174 bit/pixel

Media Info

Код:
Общее
Полное имя : Mona Kim_(Her Porn Urges)_[/*spam*/].mp4
Формат : MPEG-4
Профиль формата : Base Media / Version 2
Идентификатор кодека : mp42
Размер файла : 346 Мбайт
Продолжительность : 34 м.
Режим общего битрейта : Переменный
Общий поток : 1387 Кбит/сек
Дата кодирования : UTC 2015-03-11 16:20:48
Дата пометки : UTC 2015-03-11 16:20:52
Видео
Идентификатор : 1
Формат : AVC
Формат/Информация : Advanced Video Codec
Профиль формата : [email protected]/*  */
Параметр CABAC формата : Нет
Параметр ReFrames формата : 3 кадра
Параметр GOP формата : M=1, N=29
Идентификатор кодека : avc1
Идентификатор кодека/Информация : Advanced Video Coding
Продолжительность : 34 м.
Вид битрейта : Переменный
Битрейт : 1200 Кбит/сек
Ширина : 640 пикселей
Высота : 360 пикселей
Соотношение сторон : 16:9
Режим частоты кадров : Переменный
Частота кадров : 29,970 кадров/сек
Минимальная частота кадров : 29,970 кадров/сек
Максимальная частота кадров : 30,000 кадров/сек
Стандарт вещания : NTSC
Цветовое пространство : YUV
Субдискретизация насыщенности : 4:2:0
Битовая глубина : 8 бит
Тип развёртки : Прогрессивная
Бит/(Пиксели*Кадры) : 0.174
Размер потока : 298 Мбайт (86%)
Язык : English
Дата кодирования : UTC 2015-03-11 16:20:49
Дата пометки : UTC 2015-03-11 16:20:49
Цветовой диапазон : Limited
Аудио
Идентификатор : 2
Формат : AAC
Формат/Информация : Advanced Audio Codec
Профиль формата : LC
Идентификатор кодека : 40
Продолжительность : 34 м.
Продолжительность оригинала : 34 м.
Вид битрейта : Переменный
Битрейт : 192 Кбит/сек
Максимальный битрейт : 284 Кбит/сек
Каналы : 2 канала
Расположение каналов : Front: L R
Частота : 48,0 КГц
Метод сжатия : С потерями
Размер потока : 47,2 Мбайт (14%)
Размер потока оригинала : 47,3 Мбайт (14%)
Язык : English
Дата кодирования : UTC 2015-03-11 16:20:49
Дата пометки : UTC 2015-03-11 16:20:49

Скринлист

Скриншоты

                                   

Bio Mona Kim

Рост: 160 см
Вес: 45 кг
Откуда: Россия
Дата рождения: 06 октября 1987
Начало карьеры: 2008
Размер груди: 1
Фигура: 32A-23-33
Волосы: Коричневые
Цвет глаз: Карий
Настоящее имя: нет информации

Ещё подробнее

Красотка Мона из глубинки огромной России попыталась проявить себя в качестве эротической модели уже довольно давно, более пяти лет назад. Когда эта цыпочка пришла в эротику ей было только двадцать лет и она мечтала о знаменитости и богатстве, как впрочем и многие девушки в ее возрасте. Однако Ким была не обрамлена всякими принципами и скромностью, что позволило ей без толики стеснения проявить себя в порноиндустрии. В самом начале ее карьеры она снималась довольно редко, пытаясь найти более серьезную студию, а не размениваться на каждое предложение. После нескольких небольших ролей в низкоуровневом порно, ей все-таки удалось пробиться на порядок выше и попасть к в более серьезным продюсерам. Девушка начала сниматься для YoungLegalPorn и AmKingdom, наконец начиная нормально раскрывать свой потенциал.
Мона Ким без стеснения участвовала во многих жанрах фильмов для взрослых. Будь то групповой секс с парнями или девушками, а может и анальное проникновение - она с радостью показывала свои актерские данные раз за разом. После 2011 года эта милашка резко уменьшила количество выпускаемых с ней фильмов, решив немного передохнуть от напряженной работы, однако вновь вернулась к концу 2014, когда ей и повезло попасть на несколько хороших кастингов, в том числе и к Пьеру Вудману, который проверял сотни актрис эротического характера, многие из которых после этого обрели путь к успеху. Так и получилось с этой красоткой, ведь буквально через несколько дней после Вудмана ее пригласили на фотосессию в HotLegsAndFeet, где она смогла показать прелести своих ножек для фанатов фут-фетиша. Еще немного времени прошло - и девушка уже записывается для EuroTeenErotica, а последние ролики с ее участием были под маркой DDF, что означает намного более высокий уровень качества.
После перерыва в работе порноактрисой, Мона Ким поработала над своим имиджем, сменив цвет волос с светлого на темно-русый, а также немного поработав над своим сценическим образом. У девушки также имеется пара татуировок - надпись на латинском языке на плече рядом с рисунком и небольшой дракончик в нижней части спины. Стоит отметить, что за все время своей карьеры девушка часто сменяла сценические псевдонимы, но у нее никак не получалось определиться с одним, но ее нынешнее имя она решила оставить надолго. Красотка также решила получше подготовиться к популярности, решив начать активною работу в социальных сетях, где теперь общается со своими пока еще немногочисленными фанатами, но так как ее график работ расписан надолго, можно предположить что на этот раз она однозначно добьется крупного успеха. А учитывая, что эта цыпочка обладает значительным сценическим опытом и готова на любые эксперименты в области секса, то она однозначно далеко пойдет в порно индустрии.
         

_________________
Вне форума [Профиль] [ЛС]
Показать сообщения:    
Ответить на тему

Текущее время: Сегодня 16:25

Часовой пояс: GMT + 3



Вы не можете начинать темы
Вы не можете отвечать на сообщения
Вы не можете редактировать свои сообщения
Вы не можете удалять свои сообщения
Вы не можете голосовать в опросах
Вы не можете прикреплять файлы к сообщениям
Вы не можете скачивать файлы