Сегодня идет свободное скачивание без начисления Download

Вайнона Эрп / Wynonna Earp / Сезон: 1 / Серии: 1-13 (13) (Emily Andras) [2016, США, Канада, экшн, вестерн, фэнтези, драма, WEB-DL 720p] MVO (Кравец / Kravec) + Original + Eng Subs

Ответить на тему
 
Автор
Сообщение

Omen ®

Стаж: 5 лет 11 месяцев

Сообщений: 184329

Торрент-статистика

Пост 06-Дек-2016 01:00

[Цитировать]

Вайнона Эрп- -✪ "У всех свои демоны. Её - смертельно опасны". ✪("Everyone's got demons. Hers fight back".)- Год выпуска: 2016
Страна: США , Канада
Производство: SEVEN24 Films; IDW Entertainment
Жанр: экшн, вестерн, фэнтези, драма
Продолжительность: ~ 00:43:00
Перевод: профессиональный (многоголосый закадровый)студия "Кравец-Рекордз"
-Режиссеры: Паоло Барзмен / Paolo Barzman, Рон Мерфи / Ron Murphy, Питер Стеббингс / Peter Stebbings, Бретт Салливан / Brett Sullivan
Создатель сериала: Эмили Андрас / Emily Andras
Сериал основан на: серии комиксов «Вайнона Эрп» (2002-...)[/url] Бо Смита / Beau Smith-В ролях: Мелани Скрофано / Melanie Scrofano, Шамир Андерсон / Shamier Anderson, Тим Розон / Tim Rozon, Доминик Провост-Чалкли / Dominique Provost-Chalkley, Майкл Эклунд / Michael Eklund, Кэтерин Баррелл / Katherine Barrell, Грег Лосон / Greg Lawson, Наташа Гиргис / Natascha Girgis, Дилан Королл / Dylan Koroll, Анна Куик / Anna Quick, Натали Крилл / Natalie Krill, Раиса Кондраки / Rayisa Kondracki и другие-Описание:
Вайнона Эрп, праправнучка легендарного стрелка Уайетта Эрпа после долгих лет возвращается в родной город на похороны дяди, как раз в день своего двадцатисемилетия. Семейное проклятие, от которого она надеялась убежать, настигает ее, и теперь ей предстоит отправить обратно в ад каждого из убитых Уайеттом 77 преступников, воскресающих с гибелью очередного наследника. Запертые в Треугольнике Призрачной реки, опасные преступники, давно хотят снять заклятие и выбраться за его пределы, и остановить их может только наследница Эрпа. И начнет Вайнона с той семерки, которая шестнадцать лет назад стала причиной гибели ее отца и старшей сестры. Чтобы свершить свою вендетту, наследница начнет работать на специальный отряд Черный жетон, занимающийся сверхъестественными делами, к которому также присоединится и младшая сестра Вайноны - Вэйверли, долгие годы искавшая способ снять семейное проклятие и навсегда отправить в ад всех восставших преступников. В этом деле сестрам поможет особенный кольт прапрадедушки, названный Миротворец, и проклятый бессмертием знаменитый напарник Уайетта Эрпа и лучший стрелок Дикого Запада - Джон Генри «Док» Холлидей. © JessaLin-Релиз:
Аудио:
Видео: NTb
Отдельная благодарность за помощь в работе над релизом Khoren2013.- -Сэмпл ✪ —
Саундтрек к первому сезону [релиз почти готов]Трейлер (русские субтитры)-

Список эпизодов:

01. Purgatory ✪ Чистилище
02. Keep the Home Fires Burning ✪ Сбереги огонь домашнего очага
03. Leavin' on Your Mind ✪ Полагаясь на твой разум
04. The Blade ✪ Лезвие
05. Diggin' Up Bones ✪ Выкапывая кости
06. Constant Cravings ✪ Неизменные пристрастия
07. Walking After Midnight ✪ Прогулка после полуночи
08. Two-Faced Jack ✪ Двуликий Джек
09. Bury Me With My Guns On ✪ Закопайте меня с моими пистолетами
10. She Wouldn't Be Gone ✪ Она бы не ушла
11. Landslide ✪ Блестящая победа
12. House of Memories ✪ Дом воспоминаний
13. I Walk the Line ✪ Я пересекаю линию
-Качество: WEB-DL 720p
Формат: MKV
Видео: MPEG4 Video (H264) | 1280x714 (16:9) | 23.967fps | ~4094 kbps avg | 0.187 bit/pixel
Аудио #1: AAC | 48000 Hz | 2 (Front: L R) | stereo | 124 kbps ✪ RUS, студия "Кравец-Рекордз"
Аудио #2: Dolby AC3 | 48000 Hz | 5.1 (Front: L C R, Side: L R) + LFE | stereo | 384 kbps ✪ ENG
Субтитры: английские (отдельно)
Реклама: отсутствует
-

MI

General
Unique ID : 172200016625093241413881431387964543823 (0x818C844FE7322D428DF53482EB75934F)
Complete name : G:\...\Wynonna Earp S01 (Kravec) WEB-DL 720p\Wynonna.Earp.S01E01.Purgatory.720p.WEB-DL-NTb.Kravec.eng.mkv
Format : Matroska
Format version : Version 4 / Version 2
File size : 1.39 GiB
Duration : 43 min 27 s
Overall bit rate : 4 569 kb/s
Encoded date : UTC 2016-11-10 13:11:34
Writing application : mkvmerge v9.5.0 ('Quiet Fire') 64bit
Writing library : libebml v1.3.4 + libmatroska v1.4.5
Video
ID : 1
Format : AVC
Format/Info : Advanced Video Codec
Format profile : High@L3.1
Format settings, CABAC : No
Format settings, ReFrames : 2 frames
Codec ID : V_MPEG4/ISO/AVC
Duration : 43 min 6 s
Bit rate : 4 094 kb/s
Width : 1 280 pixels
Height : 714 pixels
Display aspect ratio : 16:9
Frame rate mode : Constant
Frame rate : 23.976 (23976/1000) FPS
Color space : YUV
Chroma subsampling : 4:2:0
Bit depth : 8 bits
Scan type : Progressive
Bits/(Pixel*Frame) : 0.187
Stream size : 1.23 GiB (89%)
Default : Yes
Forced : No
Color range : Limited
Color primaries : BT.709
Transfer characteristics : BT.709
Matrix coefficients : BT.709
Audio #1
ID : 2
Format : AAC
Format/Info : Advanced Audio Codec
Format profile : LC
Codec ID : A_AAC
Duration : 43 min 27 s
Bit rate : 124 kb/s
Channel(s) : 2 channels
Channel positions : Front: L R
Sampling rate : 48.0 kHz
Frame rate : 46.875 FPS (1024 spf)
Compression mode : Lossy
Delay relative to video : 20 ms
Stream size : 38.6 MiB (3%)
Title : MVO Kravec
Language : Russian
Default : Yes
Forced : No
Audio #2
ID : 3
Format : AC-3
Format/Info : Audio Coding 3
Mode extension : CM (complete main)
Format settings, Endianness : Big
Codec ID : A_AC3
Duration : 43 min 6 s
Bit rate mode : Constant
Bit rate : 384 kb/s
Channel(s) : 6 channels
Channel positions : Front: L C R, Side: L R, LFE
Sampling rate : 48.0 kHz
Frame rate : 31.250 FPS (1536 spf)
Bit depth : 16 bits
Compression mode : Lossy
Stream size : 118 MiB (8%)
Title : Original Audio
Language : English
Default : No
Forced : No

Скриншоты

Opening Titles






--Премьера 2 сезона (12 эпизодов) - весна 2017.--
Вне форума [Профиль] [ЛС]
Показать сообщения:    
Ответить на тему

Текущее время: Сегодня 15:03

Часовой пояс: GMT + 3



Вы не можете начинать темы
Вы не можете отвечать на сообщения
Вы не можете редактировать свои сообщения
Вы не можете удалять свои сообщения
Вы не можете голосовать в опросах
Вы не можете прикреплять файлы к сообщениям
Вы не можете скачивать файлы