Сегодня идет свободное скачивание без начисления Download

Легенды завтрашнего дня / DC\'s Legends of Tomorrow / Сезон: 2 / Серии: 1-1 из 16 (Дермотт Даунс, Глен Винтер, Джо Данте) [2016, США, фантастика, боевик, WEB-DL 720p] MVO (LostFilm) + Original + Sub Eng

Ответить на тему
 
Автор
Сообщение

Omen ®

Стаж: 5 лет 11 месяцев

Сообщений: 184329

Торрент-статистика

Пост 05-Дек-2016 01:00

[Цитировать]

-Легенды завтрашнего дня | DC's Legends of Tomorrow
- -Год выпуска: 2016.
Страна: США.
Жанр: фантастика, боевик, таймтревел, комиксмуви.
Продолжительность: ~00:44:00-Перевод:
Профессиональный (многоголосый закадровый) LostFilm
Профессиональный (многоголосый закадровый) BaibaKo
Режиссёр: Дермотт Даунс, Глен Винтер, Джо Данте.-В ролях: Виктор Гарбер, Брэндон Рут, Кейти Лотц, Артур Дарвилл, Сиара Рене, Франц Драмех, Доминик Пёрселл, Вентворт Миллер, Фальк Хеншел, Каспер Крамп.-Описание:
Увидев будущее, которого обязательно нужно избежать, Рип Хантер, путешественник во времени, собирает команду из героев и злодеев, чтобы противостоять смертельной угрозе. На кону стоит не только наша планета, но и все время в целом. Сможет ли эта команда победить бессмертное зло, абсолютно непохожее на то, что они видели раньше?-Доп. Информация:
Релиз от
by k-marat-s.
Работа со звуком: k-marat-s.
  • Релиз без рекламы.
  • Дорожка LostFilm получена наложением выделенного голоса на центр декодированного AC3.---Качество: WEB-DL 720p
    Контейнер: MKV-Видео: AVC, 1280x718 (16:9), 23.976 fps, 3 944 Kbps (0.179 bit/pixel)
    Аудио#1: Russian: 48 kHz, AC3, 3/2 (L,C,R,l,r) + LFE ch, ~384.00 kbps avg |Многоголосый закадровый, LostFilm|
    Аудио#2:: English: 48 kHz, AC3, 3/2 (L,C,R,l,r) + LFE ch, ~384.00 kbps avg
    Субтитры: English.

Список серий

  • 01. «Out of Time» / «Вне времени».
  • 02. «The Justice Society of America» / «Общество Справедливости Америки».
  • 03. «Shogun» / «Сёгун».
  • 04. «Abominations» / «Отвратности».
  • 05. «Compromised» / «Компромисс».
  • 06. «Outlaw Country» / «Страна беззакония».
  • 07. «Invasion!» / «Вторжение!».
  • 08.
  • 09. .
  • 10. .
  • 11. .
  • 12. .
  • 13. .
  • 14. .
  • 15. .
  • 16. .

MediaInfo

GeneralUnique ID : 245443866461871080021268142271962757400 (0xB8A6C4EAD9520BA082C4ADC321CF3918)Complete name : Q:\!СЕРИАЛЫ!\Legends.of.Tomorrow.S02.WEB-DL.720p.Rus.Eng.HDCLUB\Legends.of.Tomorrow.S02E01.WEB-DL.720p.Rus.Eng.HDCLUB.mkvFormat : MatroskaFormat version : Version 4 / Version 2File size : 1.42 GiBDuration : 42mn 23sOverall bit rate : 4 807 KbpsMovie name : Legends of Tomorrow 2x01 (2016) - Release kmarats for HDCLUBEncoded date : UTC 2016-12-03 20:23:38Writing application : mkvmerge v9.4.2 ('So High') 64bitWriting library : libebml v1.3.4 + libmatroska v1.4.5DURATION : 00:42:23.296000000NUMBER_OF_FRAMES : 79478NUMBER_OF_BYTES : 122078208_STATISTICS_WRITING_APP : mkvmerge v9.4.2 ('So High') 64bit_STATISTICS_WRITING_DATE_UTC : 2016-12-03 20:23:38_STATISTICS_TAGS : BPS DURATION NUMBER_OF_FRAMES NUMBER_OF_BYTES
VideoID : 1Format : AVCFormat/Info : Advanced Video CodecFormat profile : High@L3.1Format settings, CABAC : NoFormat settings, ReFrames : 2 framesCodec ID : V_MPEG4/ISO/AVCDuration : 42mn 23sBit rate : 3 944 KbpsWidth : 1 280 pixelsHeight : 718 pixelsDisplay aspect ratio : 16:9Frame rate mode : ConstantFrame rate : 23.976 fpsColor space : YUVChroma subsampling : 4:2:0Bit depth : 8 bitsScan type : ProgressiveBits/(Pixel*Frame) : 0.179Stream size : 1.17 GiB (82%)Title : Legends of Tomorrow 2x01 (2016) - Release kmarats for HDCLUBLanguage : EnglishDefault : YesForced : NoColor range : LimitedColor primaries : BT.709Transfer characteristics : BT.709Matrix coefficients : BT.709
Audio #1ID : 2Format : AC-3Format/Info : Audio Coding 3Mode extension : CM (complete main)Format settings, Endianness : BigCodec ID : A_AC3Duration : 42mn 23sBit rate mode : ConstantBit rate : 384 KbpsChannel(s) : 6 channelsChannel positions : Front: L C R, Side: L R, LFESampling rate : 48.0 KHzCompression mode : LossyStream size : 116 MiB (8%)Title : LostFilmLanguage : RussianDefault : YesForced : No
Audio #2ID : 3Format : AC-3Format/Info : Audio Coding 3Mode extension : CM (complete main)Format settings, Endianness : BigCodec ID : A_AC3Duration : 42mn 23sBit rate mode : ConstantBit rate : 384 KbpsChannel(s) : 6 channelsChannel positions : Front: L C R, Side: L R, LFESampling rate : 48.0 KHzCompression mode : LossyStream size : 116 MiB (8%)Title : EnglishLanguage : EnglishDefault : NoForced : No
TextID : 4Format : UTF-8Codec ID : S_TEXT/UTF8Codec ID/Info : UTF-8 Plain TextTitle : eng-subLanguage : EnglishDefault : NoForced : No

Скриншоты


Внимание! Раздача ведётся путём добавления новых серий

Внимание! Раздача ведётся путём добавления новых серий; при каждом добавлении создаётся новый торрент. Чтобы начать докачку новой серии, пользователям необходимо сделать следующее:
(1) остановить скачивание,
(2) удалить старый торрент у себя из клиента (старые серии удалять не надо),
(3) скачать новый торрент и запустить его у себя в клиенте вместо старого, при этом указать клиенту путь в старую папку куда и должно происходить скачивание новых серий.
Ваш клиент при этом должен произвести хеширование (проверку) старой папки (если не производит сам - помогите ему сделать это), и будет докачивать только те серии которых у вас ещё нет. Старые серии при этом не удаляются, а продолжают раздаваться!
Eсли вы уже удалили старые серии, то предотвратить повторную закачку старых серий можно, отжав галочку в соответствующих местах при запуске нового торрента. По возможности, желательно не удалять старые серии как можно дольше чтобы релизёр не столько продолжал раздавать старые серии, а смог сконцентрироваться на новых.
Сэмпл | КиноПоиск | IMDB | MyShows |
Вне форума [Профиль] [ЛС]
Похожие темы
Форум Тема Автор Торрент Отв. Посл. сообщение
./templates/default/images/folder_dl.gif Новинки (BD|HDTV|DVD) Легенда о Коловрате (Джаник Файзиев, Иван Шурховецкий) [2017 г., история, боевик, фэнтези, WEB-DL 1080p] iTunes Theseus
1 | 0

0 | 1638

8

2018-01-31 02:23
Theseus Последнее
./templates/default/images/folder_dl.gif Новинки (HD|DVD|BD|WEB|TV|SAT|PDTV|-Rip) Легенда о Коловрате (Джаник Файзиев, Иван Шурховецкий) [2017 г., история, боевик, фэнтези, WEB-DLRip-AVC] iTunes Theseus
1 | 0

0 | 1930

7

2018-01-31 13:44
Theseus Последнее
Показать сообщения:    
Ответить на тему

Текущее время: Сегодня 21:03

Часовой пояс: GMT + 3



Вы не можете начинать темы
Вы не можете отвечать на сообщения
Вы не можете редактировать свои сообщения
Вы не можете удалять свои сообщения
Вы не можете голосовать в опросах
Вы не можете прикреплять файлы к сообщениям
Вы не можете скачивать файлы