Сегодня идет свободное скачивание без начисления Download

Убийство / The Killing / Сезон: 1 / Серии: 1-13 из 13 (Вина Кабрерос Суд / Veena Cabreros-Sud) [2011, США, драма, детектив, BDRip 720p] MVO (LostFilm) + DVO (Кубик в кубе) + AVO (Юрий Сербин) + Ukr + Original

Ответить на тему
 
Автор
Сообщение

Omen ®

Стаж: 5 лет 6 месяцев

Сообщений: 186946

Торрент-статистика

Пост 05-Дек-2016 01:00

[Цитировать]

Убийство / The Killing
Год выпуска: 2011
Страна: США
Жанр: драма, детектив
Продолжительность серии: ~00:45:00
Перевод:
профессиональный (многоголосый закадровый) - LostFilm
профессиональный (двухголосый закадровый) - Кубик в кубе
профессиональный (одноголосый закадровый) - Юрий Сербин
любительский (многоголосый закадровый) - LPF TV
Русские субтитры: есть - TrueTransLate
Режиссёр: Вина Кабрерос Суд
В ролях: Мирей Инос, Билл Кэмпбелл, Юэль Киннаман, Мишель Форбс, Брент Секстон, Кристин Леман, Эрик Ладин, Брендан Секстон III, Джейми Энн Оллмен, Энни Корли
Описание: сериал рассказывает об одном убийстве с трех точек зрения – детективов, приставленных к этому делу, семьи погибшей и подозреваемых. Сюжет также затрагивает местных политиков и их связь с этим делом. Постепенно становится ясно, что здесь нет случайностей, у каждого свой секрет. И хотя персонажи думают, что они продолжают жить дальше, их прошлое еще не оставило их в покое.
[url=tracker.php?f=2366&nm=%D0%A3%D0%B1%D0%B8%D0%B9%D1%81%D1%82%D0%B2%D0%BE%20/%20The%20Killing%20/%20%D0%A1%D0%B5%D0%B7%D0%BE%D0%BD:%201%20/%20%D0%A1%D0%B5%D1%80%D0%B8%D0%B8:%201-13%20%D0%B8%D0%B7%2013]Предыдущие и альтернативные раздачи[/url]
Семпл
Качество: BDRip 720p (CtrlHD)
Контейнер: MKV
Видео: MPEG-4 AVC, 1280x720, 16:9, 23.976 fps, ~12500 kbps
Аудио:
DTS, 48 kHz, 5.1 ch, 1509 kbps [Russian: LostFilm]
DTS, 48 kHz, 5.1 ch, 1509 kbps [Russian: Кубик в кубе]
DTS, 48 kHz, 5.1 ch, 1509 kbps [Russian: Юрий Сербин]
DTS, 48 kHz, 5.1 ch, 1509 kbps [Ukrainian: LPF TV]
DTS, 48 kHz, 5.1 ch, 1509 kbps [English: Original]
AAC, 48 kHz, 2.0 ch, 90 kbps [English: Commentary] (S01E01, 13)
Субтитры: Russian (TrueTransLate), English (SDH)

Релиз

Сохранены оригинальные главы как на Blu-ray.
Аудиодорожка №1 получена наложением выделенного голоса на центр декодированного DTS-HD MA.
Аудиодорожки №2-4 получены наложением чистых голосов на центр декодированного DTS-HD MA.
За чистые голоса "Кубик в кубе" спасибо ЛП.
За чистые голоса Юрия Сербина спасибо меценатам NovaFilm.
За чистые голоса "LPF TV" спасибо meako.
В 13-й серии у аудиодорожек №1-2 имеются вставки из аудиодорожки №3 на расширенные сцены.
За аудиодорожки спасибо Vlad1k_H_.

Список серий

01. Пилот / Pilot
02. Клетка / Cage
03. Дьявол / El Diablo
04. Беззвучное эхо / A Soundless Echo
05. Супер 8 / Super 8
06. То, что осталось / What You Have Left
07. Месть / Vengeance
08. Оппозиция / Stonewalled
09. Скрытая тенденция / Undertow
10. Я скажу вам, когда я буду там / I'll Let You Know When I Get There
11. Пропавший / Missing
12. Красное солнце / Beau Soleil
13. Падение Орфея / Orpheus Descending

Подробные технические данные

GeneralUnique ID : 209831114702962191053138745811977619555 (0x9DDC00B168E8E07BBC3E76392813C863)Complete name : I:\Загрузки\The.Killing.S01.720p.BluRay.DTS.x264-CtrlHD\The.Killing.S01E01.720p.BluRay.DTS.x264-CtrlHD.mkvFormat : MatroskaFormat version : Version 4 / Version 2File size : 6.32 GiBDuration : 45 min 27 sOverall bit rate : 19.9 Mb/sEncoded date : UTC 2016-12-03 14:22:28Writing application : mkvmerge v9.6.0 ('Slave To Your Mind') 64bitWriting library : libebml v1.3.4 + libmatroska v1.4.5
VideoID : 1Format : AVCFormat/Info : Advanced Video CodecFormat profile : High@L4.1Format settings, CABAC : YesFormat settings, ReFrames : 9 framesCodec ID : V_MPEG4/ISO/AVCDuration : 45 min 27 sBit rate : 12.3 Mb/sWidth : 1 280 pixelsHeight : 720 pixelsDisplay aspect ratio : 16:9Frame rate mode : ConstantFrame rate : 23.976 (24000/1001) FPSColor space : YUVChroma subsampling : 4:2:0Bit depth : 8 bitsScan type : ProgressiveBits/(Pixel*Frame) : 0.556Stream size : 3.90 GiB (62%)Writing library : x264 core 125 r2208kMod d9d2288Encoding settings : cabac=1 / ref=9 / deblock=1:-3:-3 / analyse=0x3:0x113 / me=umh / subme=11 / psy=1 / fade_compensate=0.00 / psy_rd=1.25:0.00 / mixed_ref=1 / me_range=16 / chroma_me=1 / trellis=2 / 8x8dct=1 / cqm=0 / deadzone=21,11 / fast_pskip=0 / chroma_qp_offset=-2 / threads=6 / lookahead_threads=1 / sliced_threads=0 / nr=0 / decimate=0 / interlaced=0 / bluray_compat=0 / constrained_intra=0 / bframes=8 / b_pyramid=2 / b_adapt=2 / b_bias=0 / direct=3 / weightb=1 / open_gop=0 / weightp=2 / keyint=250 / keyint_min=23 / scenecut=40 / intra_refresh=0 / rc=crf / mbtree=0 / crf=19.0000 / qcomp=0.75 / qpmin=0 / qpmax=69 / qpstep=4 / ip_ratio=1.30 / pb_ratio=1.10 / aq=2:0.80Language : EnglishDefault : YesForced : No
Audio #1ID : 2Format : DTSFormat/Info : Digital Theater SystemsMode : 16Format settings, Endianness : BigCodec ID : A_DTSDuration : 45 min 27 sBit rate mode : ConstantBit rate : 1 509 kb/sChannel(s) : 6 channelsChannel positions : Front: L C R, Side: L R, LFESampling rate : 48.0 kHzFrame rate : 93.750 FPS (512 spf)Bit depth : 24 bitsCompression mode : LossyStream size : 491 MiB (8%)Title : LostFilmLanguage : RussianDefault : YesForced : No
Audio #2ID : 3Format : DTSFormat/Info : Digital Theater SystemsMode : 16Format settings, Endianness : BigCodec ID : A_DTSDuration : 45 min 27 sBit rate mode : ConstantBit rate : 1 509 kb/sChannel(s) : 6 channelsChannel positions : Front: L C R, Side: L R, LFESampling rate : 48.0 kHzFrame rate : 93.750 FPS (512 spf)Bit depth : 24 bitsCompression mode : LossyStream size : 491 MiB (8%)Title : Кубик в кубеLanguage : RussianDefault : NoForced : No
Audio #3ID : 4Format : DTSFormat/Info : Digital Theater SystemsMode : 16Format settings, Endianness : BigCodec ID : A_DTSDuration : 45 min 27 sBit rate mode : ConstantBit rate : 1 509 kb/sChannel(s) : 6 channelsChannel positions : Front: L C R, Side: L R, LFESampling rate : 48.0 kHzFrame rate : 93.750 FPS (512 spf)Bit depth : 24 bitsCompression mode : LossyStream size : 491 MiB (8%)Title : Юрий СербинLanguage : RussianDefault : NoForced : No
Audio #4ID : 5Format : DTSFormat/Info : Digital Theater SystemsMode : 16Format settings, Endianness : BigCodec ID : A_DTSDuration : 45 min 27 sBit rate mode : ConstantBit rate : 1 509 kb/sChannel(s) : 6 channelsChannel positions : Front: L C R, Side: L R, LFESampling rate : 48.0 kHzFrame rate : 93.750 FPS (512 spf)Bit depth : 24 bitsCompression mode : LossyStream size : 491 MiB (8%)Title : LPF TVLanguage : UkrainianDefault : NoForced : No
Audio #5ID : 6Format : DTSFormat/Info : Digital Theater SystemsMode : 16Format settings, Endianness : BigCodec ID : A_DTSDuration : 45 min 27 sBit rate mode : ConstantBit rate : 1 509 kb/sChannel(s) : 6 channelsChannel positions : Front: L C R, Side: L R, LFESampling rate : 48.0 kHzFrame rate : 93.750 FPS (512 spf)Bit depth : 24 bitsCompression mode : LossyStream size : 491 MiB (8%)Title : OriginalLanguage : EnglishDefault : NoForced : No
Audio #6ID : 7Format : AACFormat/Info : Advanced Audio CodecFormat profile : LCCodec ID : A_AACDuration : 45 min 27 sBit rate : 90.4 kb/sChannel(s) : 2 channelsChannel positions : Front: L RSampling rate : 48.0 kHzFrame rate : 46.875 FPS (1024 spf)Compression mode : LossyStream size : 29.4 MiB (0%)Title : CommentaryLanguage : EnglishDefault : NoForced : No
Text #1ID : 8Format : UTF-8Codec ID : S_TEXT/UTF8Codec ID/Info : UTF-8 Plain TextDuration : 42 min 5 sBit rate : 106 b/sCount of elements : 713Stream size : 32.9 KiB (0%)Title : TrueTransLateLanguage : RussianDefault : NoForced : No
Text #2ID : 9Format : UTF-8Codec ID : S_TEXT/UTF8Codec ID/Info : UTF-8 Plain TextDuration : 45 min 23 sBit rate : 66 b/sCount of elements : 656Stream size : 22.1 KiB (0%)Title : SDHLanguage : EnglishDefault : NoForced : No
Menu00:00:00.000 : en:Chapter 100:02:27.439 : en:Chapter 200:07:39.000 : en:Chapter 300:12:39.592 : en:Chapter 400:15:52.952 : en:Chapter 500:19:49.313 : en:Chapter 600:22:48.909 : en:Chapter 700:26:46.230 : en:Chapter 800:28:13.400 : en:Chapter 900:32:37.414 : en:Chapter 1000:35:02.642 : en:Chapter 1100:37:42.552 : en:Chapter 12

Скриншоты


Вне форума [Профиль] [ЛС]
Показать сообщения:    
Ответить на тему

Текущее время: Сегодня 14:57

Часовой пояс: GMT + 3



Вы не можете начинать темы
Вы не можете отвечать на сообщения
Вы не можете редактировать свои сообщения
Вы не можете удалять свои сообщения
Вы не можете голосовать в опросах
Вы не можете прикреплять файлы к сообщениям
Вы не можете скачивать файлы