Сегодня идет свободное скачивание без начисления Download

Три процента / 3% / Сезон: 1 / Серии: 1-8 из 8 (Джотага Крема, Дайна Гианеэчине, Дани Либарди, Сезар Шарлони) [2016, Бразилия, фантастика, триллер, WEBRip 720p] MVO (Baibako) + Original

Ответить на тему
 
Автор
Сообщение

Omen ®

Стаж: 5 лет 6 месяцев

Сообщений: 186946

Торрент-статистика

Пост 04-Дек-2016 01:00

[Цитировать]

Три процента / 3% Год выпуска: 2016
Страна: Бразилия / Boutique Filmes
Жанр: фантастика, триллер
Продолжительность: ~ 00:48:00
Перевод: Профессиональный (многоголосый закадровый) Baibako
Режиссёр:Джотага Крема, Дайна Гианеэчине, Дани Либарди, Сезар Шарлони
В ролях:Бьянка Компрату, Мэл Фронковиак, Мишель Гомес, Рафаэль Лозаньо, Джоао Мигель, Вивиан Порто, Родольфо Валенте и др.
Описание:Будущее, где мир разделён на две части: одни - богатые, другие - нищие. Их распределяют в процессе отбора. В двадцать лет каждому человеку дается шанс. Избранные не возвращаются назад. Их - три процента.

Качество: WEBRip 720p
Контейнер: MKV
Видео: AVC/H.264, ~ 3100 kbps , 1280x720 (16:9) , 23,976 fps
Аудио: АС3, 6 ch, 384 Кбит/с [Rus]
Аудио 2: АС3, 6 ch, 384 Кбит/с [Eng]
Субтитры: Нет
Релиз без рекламы

MediaInfo

Общее
Уникальный идентификатор : 195508961677846940478819083585801798597 (0x9315A807CEDFD876AC8575EC5349C3C5)
Полное имя : D:\Загрузки\3% (Season 01) BaibaKo 720\3%.s01e01.HD720p.WEBRip.Rus.Eng.BaibaKo.mkv
Формат : Matroska
Версия формата : Version 2
Размер файла : 1,39 Гбайт
Продолжительность : 49 м. 51 с.
Общий поток : 3980 Кбит/сек
Дата кодирования : UTC 2016-11-26 23:40:29
Программа кодирования : mkvmerge v7.8.0 ('River Man') 32bit built on Apr 3 2015 12:11:22
Библиотека кодирования : libebml v1.3.1 + libmatroska v1.4.2
Видео
Идентификатор : 1
Формат : AVC
Формат/Информация : Advanced Video Codec
Профиль формата : High@L4.1
Параметр CABAC формата : Да
Параметр ReFrames формата : 5 кадров
Идентификатор кодека : V_MPEG4/ISO/AVC
Продолжительность : 49 м. 51 с.
Битрейт : 3133 Кбит/сек
Ширина : 1280 пикселей
Высота : 720 пикселей
Соотношение сторон : 16:9
Режим частоты кадров : Постоянный
Частота кадров : 23,976 (24000/1001) кадра/сек
Цветовое пространство : YUV
Субдискретизация насыщенности : 4:2:0
Битовая глубина : 8 бит
Тип развёртки : Прогрессивная
Бит/(Пиксели*Кадры) : 0.142
Размер потока : 1,09 Гбайт (79%)
Библиотека кодирования : x264 core 148 r2721 72d53ab
Настройки программы : cabac=1 / ref=5 / deblock=1:-2:-2 / analyse=0x3:0x113 / me=umh / subme=8 / psy=1 / psy_rd=1.00:0.15 / mixed_ref=1 / me_range=16 / chroma_me=1 / trellis=1 / 8x8dct=1 / cqm=0 / deadzone=21,11 / fast_pskip=1 / chroma_qp_offset=-2 / threads=12 / lookahead_threads=2 / sliced_threads=0 / nr=0 / decimate=1 / interlaced=0 / bluray_compat=0 / constrained_intra=0 / bframes=3 / b_pyramid=2 / b_adapt=1 / b_bias=0 / direct=3 / weightb=1 / open_gop=0 / weightp=2 / keyint=240 / keyint_min=23 / scenecut=40 / intra_refresh=0 / rc_lookahead=50 / rc=crf / mbtree=1 / crf=18.0 / qcomp=0.60 / qpmin=0 / qpmax=69 / qpstep=4 / ip_ratio=1.40 / aq=3:0.80
Язык : Portuguese
Default : Да
Forced : Нет
Аудио #1
Идентификатор : 2
Формат : AC-3
Формат/Информация : Audio Coding 3
Расширение режима : CM (complete main)
Параметр Endianness формата : Big
Идентификатор кодека : A_AC3
Продолжительность : 49 м. 51 с.
Вид битрейта : Постоянный
Битрейт : 384 Кбит/сек
Каналы : 6 каналов
Расположение каналов : Front: L C R, Side: L R, LFE
Частота : 48,0 КГц
Частота кадров : 31,250 кадров/сек (1536 spf)
Битовая глубина : 16 бит
Метод сжатия : С потерями
Размер потока : 137 Мбайт (10%)
Язык : Russian
Default : Да
Forced : Нет
Аудио #2
Идентификатор : 3
Формат : AC-3
Формат/Информация : Audio Coding 3
Расширение режима : CM (complete main)
Параметр Endianness формата : Big
Идентификатор кодека : A_AC3
Продолжительность : 49 м. 51 с.
Вид битрейта : Постоянный
Битрейт : 384 Кбит/сек
Каналы : 6 каналов
Расположение каналов : Front: L C R, Side: L R, LFE
Частота : 48,0 КГц
Частота кадров : 31,250 кадров/сек (1536 spf)
Битовая глубина : 16 бит
Метод сжатия : С потерями
Размер потока : 137 Мбайт (10%)
Язык : English
Default : Нет
Forced : Нет

Скриншоты

Вне форума [Профиль] [ЛС]
Показать сообщения:    
Ответить на тему

Текущее время: Сегодня 04:23

Часовой пояс: GMT + 3



Вы не можете начинать темы
Вы не можете отвечать на сообщения
Вы не можете редактировать свои сообщения
Вы не можете удалять свои сообщения
Вы не можете голосовать в опросах
Вы не можете прикреплять файлы к сообщениям
Вы не можете скачивать файлы