Сегодня идет свободное скачивание без начисления Download

Хорошее поведение / Good Behavior / Сезон: 1 / Серии: 1-3 из 10 (Магнус Мартенс, Миккель Нёргор, Марк Пизнарский) [2016, США, триллер, драма, криминал, детектив, WEB-DL 720p] MVO (Jaskier) + Original

Ответить на тему
 
Автор
Сообщение

Omen ®

Стаж: 5 лет 7 месяцев

Сообщений: 185412

Торрент-статистика

Пост 29-Ноя-2016 01:00

[Цитировать]

Хорошее поведение / Good Behavior -Оригинальное название: Good Behavior
Русское название: Хорошее поведение
Год выпуска: 2016
Страна: США
Жанр: триллер, драма, криминал, детектив
Продолжительность: ~ 00:55:00-Перевод: Профессиональный (многоголосый закадровый) Студия Jaskier
Субтитры: есть (английские)-Режиссёр: Магнус Мартенс, Миккель Нёргор, Марк Пизнарский-В ролях: Мишель Докери, Хуан Диего Ботто, Мэри Остин, Терри Кинни, Джои Керн, Люсия Струс, Курт Банер, Тодд Уильямс-Описание: Главная героиня — профессиональная воровка и мошенница, которая совсем недавно освободилась из тюрьмы, но не намерена завязывать со своей «специализацией». Ей случается подслушать о готовящемся покушении на какую-то несчастную женщину, после чего Летти собирается расстроить планы убийцы. Она знакомится с киллером и очень скоро по вполне понятным причинам их отношения приобретают опасный и запутанный характер.-Сэмпл-Качество: WEB-DL 720p
Формат: MKV
Видео кодек: AVC
Аудио кодек: AC3
Видео: H.264, 1280x720 (16:9), 23.976 fps, ~4000 kbps, 0.180 bit/pixel-Аудио 1: Dolby AC3 48000Hz 5.1 384Kbps Русский
Аудио 2: Dolby AC3 48000Hz 5.1 384Kbps Английский-Реклама: присутствует, звуковая, 10 сек в начале и в конце.-

MediaInfo

Код:
General
Unique ID                      : 252332680371345326437929305656936456060 (0xBDD581AA792CC51890F758ACAFE95F7C)
Complete name                  : Z:\HD\Good Behavior. Season 1 (WEB-DL l 720p l Jaskier)\Good.Behavior.S01E01.So.You're.Not.an.English.Teacher.Uncensored.720p.WEB-DL.DD5.1.H.264-Jaskier.mkv
Format                         : Matroska
Format version                 : Version 2
File size                      : 1.79 GiB
Duration                       : 52mn 56s
Overall bit rate               : 4 842 Kbps
Encoded date                   : UTC 2016-11-22 09:48:58
Writing application            : mkvmerge v5.4.0 ('Piper') built on Mar 10 2012 13:34:39
Writing library                : libebml v1.2.3 + libmatroska v1.3.0
DURATION                       : 00:52:13.996000000
NUMBER_OF_FRAMES               : 732
NUMBER_OF_BYTES                : 19803
_STATISTICS_WRITING_APP        : mkvmerge v8.2.0 ('World of Adventure') 64bit
_STATISTICS_WRITING_DATE_UTC   : 2016-11-10 08:39:29
_STATISTICS_TAGS               : BPS DURATION NUMBER_OF_FRAMES NUMBER_OF_BYTES
Video
ID                             : 1
Format                         : AVC
Format/Info                    : Advanced Video Codec
Format profile                 : High@L3.1
Format settings, CABAC         : No
Format settings, ReFrames      : 2 frames
Codec ID                       : V_MPEG4/ISO/AVC
Duration                       : 52mn 56s
Bit rate                       : 3 978 Kbps
Width                          : 1 280 pixels
Height                         : 720 pixels
Display aspect ratio           : 16:9
Frame rate                     : 23.976 fps
Color space                    : YUV
Chroma subsampling             : 4:2:0
Bit depth                      : 8 bits
Scan type                      : Progressive
Bits/(Pixel*Frame)             : 0.180
Stream size                    : 1.47 GiB (82%)
Language                       : English
Default                        : Yes
Forced                         : No
Color primaries                : BT.709-5, BT.1361, IEC 61966-2-4, SMPTE RP177
Transfer characteristics       : BT.709-5, BT.1361
Matrix coefficients            : BT.709-5, BT.1361, IEC 61966-2-4 709, SMPTE RP177
Audio #1
ID                             : 2
Format                         : AC-3
Format/Info                    : Audio Coding 3
Mode extension                 : CM (complete main)
Format settings, Endianness    : Big
Codec ID                       : A_AC3
Duration                       : 52mn 56s
Bit rate mode                  : Constant
Bit rate                       : 384 Kbps
Channel(s)                     : 6 channels
Channel positions              : Front: L C R, Side: L R, LFE
Sampling rate                  : 48.0 KHz
Bit depth                      : 16 bits
Compression mode               : Lossy
Stream size                    : 145 MiB (8%)
Language                       : Russian
Default                        : Yes
Forced                         : No
Audio #2
ID                             : 3
Format                         : AC-3
Format/Info                    : Audio Coding 3
Mode extension                 : CM (complete main)
Format settings, Endianness    : Big
Codec ID                       : A_AC3
Duration                       : 52mn 56s
Bit rate mode                  : Constant
Bit rate                       : 384 Kbps
Channel(s)                     : 6 channels
Channel positions              : Front: L C R, Side: L R, LFE
Sampling rate                  : 48.0 KHz
Bit depth                      : 16 bits
Compression mode               : Lossy
Stream size                    : 145 MiB (8%)
Language                       : English
Default                        : No
Forced                         : No
Text
ID                             : 4
Format                         : UTF-8
Codec ID                       : S_TEXT/UTF8
Codec ID/Info                  : UTF-8 Plain Text
Language                       : English
Default                        : No
Forced                         : No

Скриншоты

Внимание! Раздача ведётся путём добавления новых серий.

Внимание! Раздача ведётся путём добавления новых серий; при каждом добавлении создётся новый торрент. Чтобы начать докачку новой серии, пользователям необходимо сделать следующее:
  • Остановить скачивание.
  • Удалить старый торрент у себя из клиента (старые серии удалять не надо).
  • Скачать новый торрент и запустить его у себя в клиенте вместо старого, при этом указать клиенту путь в старую папку куда и должно происходить скачивание новых серий.
    Ваш клиент при этом должен произвести хеширование (проверку) старой папки (если не производит сам - помогите ему сделать это), и будет докачивать только те серии которых у вас ещё нет. Старые серии при этом не удаляются, а продолжают раздаваться!
    Eсли вы уже удалили старые серии, то предотвратить повторную закачку старых серий можно, отжав галочку в соответсвующих местах при запуске нового торрента. По возможности, желательно не удалять старые серии как можно дольше чтобы релизёр не столько продолжал раздавать старые серии, а смог сконцентрироваться на новых.
Вне форума [Профиль] [ЛС]
Похожие темы
Форум Тема Автор Торрент Отв. Посл. сообщение
./templates/default/images/folder_dl.gif Фантастика, фэнтези, ужасы, мистика Виктор Хорошулин | Юнга с "Белого карлика" (2015) [FB2] Omen
1 | 0

0 | 479

3

2015-08-20 23:42
Omen Последнее
./templates/default/images/folder_dl.gif Обучающее видео Антон Петрусь | Пейзаж: всё необходимое для хорошего кадра (2016) PCRec XP1971
1 | 0

0 | 150

4

2016-07-20 12:06
XP1971 Последнее
Показать сообщения:    
Ответить на тему

Текущее время: Сегодня 13:11

Часовой пояс: GMT + 3



Вы не можете начинать темы
Вы не можете отвечать на сообщения
Вы не можете редактировать свои сообщения
Вы не можете удалять свои сообщения
Вы не можете голосовать в опросах
Вы не можете прикреплять файлы к сообщениям
Вы не можете скачивать файлы