Today is a free download without charge Download

Самый лучший фильм 2 (Олег Фомин) [2009, Россия, комедия, пародия, BDRip 720p] + Original Rus

Reply to topic
 
Author
Message

Omen ®

Longevity: 7 years 2 months

Posts: 181087

Торрент-статистика

Post 28-Nov-2016 01:00

[Quote]

Самый лучший фильм 2
Страна: Россия
Студия: Monumental Pictures
Жанр: комедия, пародия
Год выпуска: 2009
Продолжительность: 01:25:00
Перевод: Не требуется
Cубтитры: нет
Оригинальная аудиодорожка: русский
Режиссер: Олег Фомин
В ролях: Тимур Батрутдинов, Гарик Харламов, Дмитрий Хрусталев, Олег Верещагин, Михаил Галустян, Дмитрий Нагиев, Александр Баширов, Сергей Лазарев, Екатерина Конисевич, Татьяна Лютаева
Описание: Четверо закадычных друзей — Моряк, Актер, Мажор и Димати — после долгой разлуки встречаются в московском кафе отметить день рождения Мажора. На сей раз у них есть наличные, чтобы расплатиться с официанткой. И бегать по городу в поисках денег они будут совершенно по другой причине. Мажора похитили и требуют выкуп — миллион евро. Чем друзья будут расплачиваться с бандитами, кто найдет новую любовь, а вместе с ней и приключения на все органы жизнедеятельности, кому придется испытать все тяготы сложного пути шоу-бизнеса к популярности, каково рэпперу кавказской наружности гулять одному по безлюдным улицам?! Но все это впереди, а пока они молоды, красивы, полны сил, надежд и ждут приключений!
Сэмпл: http://multi-up.com/1128570
Тип релиза: BDRip 720p
Контейнер: MKV
Видео: MPEG-4 AVC/H.264 /6702 kbps / 1280x544 / 24.000 fps
Аудио: AC3 / 6 ch / 640 kbps / 48 kHz
#Сохранены оригинальные чаптеры как на Blu-ray

MediaInfo

General
Unique ID : 196166477721058696729894343317361316466 (0x93944A13065B30698FDBC7A44B54D272)
Complete name : J:\Torrents\Самый лучший фильм 2 (2009) BDRip-720p.mkv
Format : Matroska
Format version : Version 2
File size : 4.36 GiB
Duration : 1h 25mn
Overall bit rate : 7 344 Kbps
Movie name : Самый лучший фильм 2 (2009)
Encoded date : UTC 2016-11-01 20:40:21
Writing application : DVDFab 9.2.4.4
Writing library : libebml v0.7.8 + libmatroska v0.8.1
Video
ID : 1
Format : AVC
Format/Info : Advanced Video Codec
Format profile : High@L4.1
Format settings, CABAC : Yes
Format settings, ReFrames : 2 frames
Codec ID : V_MPEG4/ISO/AVC
Duration : 1h 25mn
Bit rate : 6 702 Kbps
Width : 1 280 pixels
Height : 544 pixels
Display aspect ratio : 2.35:1
Frame rate mode : Constant
Frame rate : 24.000 fps
Color space : YUV
Chroma subsampling : 4:2:0
Bit depth : 8 bits
Scan type : Progressive
Bits/(Pixel*Frame) : 0.401
Stream size : 3.89 GiB (89%)
Writing library : x264 core 142
Encoding settings : cabac=1 / ref=1 / deblock=1:-1:-1 / analyse=0x3:0 / me=hex / subme=5 / psy=0 / mixed_ref=0 / me_range=16 / chroma_me=1 / trellis=0 / 8x8dct=1 / cqm=0 / deadzone=21,11 / fast_pskip=0 / chroma_qp_offset=0 / threads=2 / lookahead_threads=1 / sliced_threads=0 / nr=0 / decimate=1 / interlaced=0 / bluray_compat=0 / constrained_intra=0 / bframes=2 / b_pyramid=0 / b_adapt=1 / b_bias=0 / direct=1 / weightb=0 / open_gop=0 / weightp=0 / keyint=24 / keyint_min=13 / scenecut=40 / intra_refresh=0 / rc=2pass / mbtree=0 / bitrate=6702 / ratetol=1.0 / qcomp=0.60 / qpmin=0 / qpmax=69 / qpstep=4 / cplxblur=20.0 / qblur=0.5 / ip_ratio=1.40 / pb_ratio=1.30 / aq=1:1.00
Default : Yes
Forced : No
Color range : Limited
Color primaries : BT.709
Transfer characteristics : BT.709
Matrix coefficients : BT.709
Audio
ID : 2
Format : AC-3
Format/Info : Audio Coding 3
Mode extension : CM (complete main)
Format settings, Endianness : Big
Codec ID : A_AC3
Duration : 1h 25mn
Bit rate mode : Constant
Bit rate : 640 Kbps
Channel(s) : 6 channels
Channel positions : Front: L C R, Side: L R, LFE
Sampling rate : 48.0 KHz
Frame rate : 31.250 fps (1536 spf)
Compression mode : Lossy
Stream size : 389 MiB (9%)
Language : Russian
Default : Yes
Forced : No
Menu
00:00:00.000 : en:(01)00:00:00:000
00:05:42.666 : en:(02)00:05:42:666
00:09:44.500 : en:(03)00:09:44:500
00:17:02.333 : en:(04)00:17:02:333
00:20:12.000 : en:(05)00:20:12:000
00:21:49.625 : en:(06)00:21:49:625
00:27:24.833 : en:(07)00:27:24:833
00:33:24.000 : en:(08)00:33:24:000
00:42:59.541 : en:(09)00:42:59:541
00:46:48.500 : en:(10)00:46:48:500
00:51:24.416 : en:(11)00:51:24:416
00:56:31.416 : en:(12)00:56:31:416
01:03:44.041 : en:(13)01:03:44:041
01:09:07.208 : en:(14)01:09:07:208
01:16:18.416 : en:(15)01:16:18:416
01:22:49.500 : en:(16)01:22:49:500
01:24:59.833 : en:(17)01:24:59:833

Скриншоты

Other forum [Profile] [PM]
Similar theme
Forum Topic Author Torrent Replies Last Post
./templates/default/images/folder_dl.gif Медицина и Здоровье Анджей Гришевский, Пшемыслав Пиларски | ОН. Интимный разговор про тот самый орган (2019) [FB2] }{@R0N
1 | 0

0 | 939

3

2019-03-07 19:03
}{@R0N Latest
Display posts from previous:    
Reply to topic

The time now is: Today 13:27

All times are GMT + 3 Hours



You cannot post new topics in this forum
You cannot reply to topics in this forum
You cannot edit your posts in this forum
You cannot delete your posts in this forum
You cannot vote in polls in this forum
You cannot attach files in this forum
You cannot download files in this forum