Сегодня идет свободное скачивание без начисления Download

Голиаф / Goliath / Сезон: 1 / Серии: 1-5 из 8 (Лоуренс Триллинг, Алик Сахаров, Билл Д Элиа) [2016, США, Драма,WEBRip 720p] MVO (NewStudio) + Original

Ответить на тему
 
Автор
Сообщение

Omen ®

Стаж: 5 лет 9 месяцев

Сообщений: 184393

Торрент-статистика

Пост 27-Ноя-2016 01:01

[Цитировать]

Голиаф / Goliath Год выпуска: 2016
Страна: США
Жанр: Драма
Продолжительность: ~ 00:55:00
Перевод: Профессиональный (многоголосый закадровый) NewStudio
Режиссёр: Лоуренс Триллинг, Алик Сахаров, Билл Д Элиа
В ролях: Билли Боб Торнтон, Уильям Хёрт, Мария Белло, Оливия Тирлби, Нина Арианда, Молли Паркер, Таня Рэймонд, Сара Уайнтер, Бритен Далтон, Дэймон Гаптон
Описание: В руки опального адвоката, гоняющегося за машинами скорой помощи в поисках новых клиентов, попадает дело, которое может принести ему искупление или, по крайней мере, возможность отомстить фирме, вышвырнувшей его на улицу

Качество: WEBRip 720p
Контейнер: MKV
Видео: MPEG-4 AVC, ~ 4000 Кбит/с, 1280x640
Аудио: AC3, 6 ch, 384 Кбит/с [Rus]
Аудио 2: AC3, 6 ch, 640 Кбит/с [Eng]
Субтитры: Нет
Релиз: Без Рекламы

MediaInfo

Общее
Уникальный идентификатор : 241463753082252344704039339221305373827 (0xB5A83A2D5A3A84CDAFB2B358BDA5B483)
Полное имя : D:\Загрузки\Goliath.s01.WEB.720p.NewStudio\Goliath.s01e01.WEB.720p.NewStudio.mkv
Формат : Matroska
Версия формата : Version 2
Размер файла : 1,94 Гбайт
Продолжительность : 54 м.
Общий поток : 5072 Кбит/сек
Дата кодирования : UTC 2016-11-21 18:16:21
Программа кодирования : mkvmerge v7.8.0 ('River Man') 32bit built on Apr 3 2015 12:11:22
Библиотека кодирования : libebml v1.3.1 + libmatroska v1.4.2
Видео
Идентификатор : 1
Формат : AVC
Формат/Информация : Advanced Video Codec
Профиль формата : High@L4.1
Параметр CABAC формата : Да
Параметр ReFrames формата : 10 кадров
Идентификатор кодека : V_MPEG4/ISO/AVC
Продолжительность : 54 м.
Битрейт : 3947 Кбит/сек
Ширина : 1280 пикселей
Высота : 640 пикселей
Соотношение сторон : 2,000
Режим частоты кадров : Постоянный
Частота кадров : 23,976 (24000/1001) кадра/сек
Цветовое пространство : YUV
Субдискретизация насыщенности : 4:2:0
Битовая глубина : 8 бит
Тип развёртки : Прогрессивная
Бит/(Пиксели*Кадры) : 0.201
Размер потока : 1,51 Гбайт (78%)
Библиотека кодирования : x264 core 144 r2525 40bb568
Настройки программы : cabac=1 / ref=10 / deblock=1:-3:-3 / analyse=0x3:0x133 / me=umh / subme=10 / psy=1 / psy_rd=1.00:0.00 / mixed_ref=1 / me_range=48 / chroma_me=1 / trellis=2 / 8x8dct=1 / cqm=0 / deadzone=21,11 / fast_pskip=1 / chroma_qp_offset=-2 / threads=12 / lookahead_threads=2 / sliced_threads=0 / nr=0 / decimate=1 / interlaced=0 / bluray_compat=0 / constrained_intra=0 / bframes=8 / b_pyramid=2 / b_adapt=2 / b_bias=0 / direct=3 / weightb=1 / open_gop=0 / weightp=2 / keyint=250 / keyint_min=23 / scenecut=40 / intra_refresh=0 / rc=crf / mbtree=0 / crf=17.0 / qcomp=0.60 / qpmin=0 / qpmax=69 / qpstep=4 / ip_ratio=1.30 / pb_ratio=1.20 / aq=3:0.80
Язык : English
Default : Да
Forced : Нет
Аудио #1
Идентификатор : 2
Формат : AC-3
Формат/Информация : Audio Coding 3
Расширение режима : CM (complete main)
Параметр Endianness формата : Big
Идентификатор кодека : A_AC3
Продолжительность : 54 м.
Вид битрейта : Постоянный
Битрейт : 384 Кбит/сек
Каналы : 6 каналов
Расположение каналов : Front: L C R, Side: L R, LFE
Частота : 48,0 КГц
Частота кадров : 31,250 кадров/сек (1536 spf)
Метод сжатия : С потерями
Размер потока : 151 Мбайт (8%)
Язык : Russian
Default : Да
Forced : Да
Аудио #2
Идентификатор : 3
Формат : E-AC-3
Формат/Информация : Audio Coding 3
Параметр Endianness формата : Big
Идентификатор кодека : A_EAC3
Продолжительность : 54 м.
Вид битрейта : Постоянный
Битрейт : 640 Кбит/сек
Каналы : 6 каналов
Расположение каналов : Front: L C R, Side: L R, LFE
Частота : 48,0 КГц
Частота кадров : 187,500 кадров/сек (256 spf)
Метод сжатия : С потерями
Размер потока : 251 Мбайт (13%)
Язык : English
Default : Нет
Forced : Нет

Скриншоты

Вне форума [Профиль] [ЛС]
Показать сообщения:    
Ответить на тему

Текущее время: Сегодня 04:36

Часовой пояс: GMT + 3



Вы не можете начинать темы
Вы не можете отвечать на сообщения
Вы не можете редактировать свои сообщения
Вы не можете удалять свои сообщения
Вы не можете голосовать в опросах
Вы не можете прикреплять файлы к сообщениям
Вы не можете скачивать файлы