Сегодня идет свободное скачивание без начисления Download

Стрелок / Shooter / Сезон: 1 / Серии: 1-2 из 12 (Саймон Селлан Джоунс) [2016, США, боевик, драма, WEBRip 720p] MVO (Jaskier) + Original

Ответить на тему
 
Автор
Сообщение

Omen ®

Стаж: 5 лет 6 месяцев

Сообщений: 186946

Торрент-статистика

Пост 27-Ноя-2016 01:00

[Цитировать]

Стрелок / Shooter -Оригинальное название: Shooter
Русское название: Стрелок
Год выпуска: 2016
Страна: США
Жанр: Боевик, драма
Продолжительность: ~ 00:45:00-Перевод: Профессиональный (многоголосый закадровый) Студия Jaskier
Субтитры: есть (английские)-Режиссёр: Саймон Селлан Джоунс-В ролях: Райан Филипп, Синтия Аддай-Робинсон, Омар Эппс, Эдди МакКлинток, Темби Лок, Анжелика Кенни, Лекси Колкер, Шон Майкл, Шантель Ван Сантен, Донзали Абернати-Описание: Боб Суэггер раньше служил в морской пехоте. Умный, сильный, волевой мужчина всегда знает, когда именно нужно нанести удар по врагу! Однако сейчас он только тешит себя воспоминаниями о былых бравых временах! Сейчас все куда сложнее. Боб не по своей воле оказывается одним из главных участников серьезного конфликта. Это настоящий заговор, который планируется привести в действие. Главная цель - американский президент, которого заговорщики мечтают устранить. Боб узнает о том, что его планируют подставить в этом деле, поэтому мужчина просто напросто бросается в бега, чтобы не дать себя выставить преступником и найти зачинщика заговора.-Сэмпл-Качество: WEBRip 720p
Формат: MKV
Видео кодек: AVC
Аудио кодек: AC3, EAC3
Видео: H.264, 1280x720 (16:9), 23.976 fps, ~5700 kbps, 0.255 bit/pixel-Аудио 1: Dolby AC3 48000Hz 5.1 384Kbps Русский
Аудио 2: Dolby E-AC3 48000Hz 5.1 640Kbps Английский-Реклама: присутствует, звуковая, 10 сек в начале и в конце.-

MediaInfo

Код:
General
Unique ID                   : 219738201975242504320102767543605008553 (0xA55009CEBFCE02AF84DE0BB2E50418A9)
Complete name               : X:\HD\Shooter. Season 1 (WEBRip l 720p l Jaskier)\Shooter.S01E01.Point.of.Impact.720p.WEBRip.DD5.1.x264-Jaskier.mkv
Format                      : Matroska
Format version              : Version 2
File size                   : 1.98 GiB
Duration                    : 41mn 37s
Overall bit rate            : 6 795 Kbps
Encoded date                : UTC 2016-11-26 02:23:58
Writing application         : mkvmerge v5.4.0 ('Piper') built on Mar 10 2012 13:34:39
Writing library             : libebml v1.2.3 + libmatroska v1.3.0
Video
ID                          : 1
Format                      : AVC
Format/Info                 : Advanced Video Codec
Format profile              : High@L4.1
Format settings, CABAC      : Yes
Format settings, ReFrames   : 9 frames
Codec ID                    : V_MPEG4/ISO/AVC
Duration                    : 41mn 37s
Bit rate                    : 5 636 Kbps
Width                       : 1 280 pixels
Height                      : 720 pixels
Display aspect ratio        : 16:9
Frame rate mode             : Constant
Frame rate                  : 23.976 fps
Color space                 : YUV
Chroma subsampling          : 4:2:0
Bit depth                   : 8 bits
Scan type                   : Progressive
Bits/(Pixel*Frame)          : 0.255
Stream size                 : 1.64 GiB (83%)
Writing library             : x264 core 148 r2721+55 e19946b t_mod_Custom [8-bit@all X86_64]
Encoding settings           : cabac=1 / ref=9 / deblock=1:-3:-3 / analyse=0x3:0x133 / me=umh / subme=10 / psy=1 / fade_compensate=0.00 / psy_rd=1.00:0.00 / mixed_ref=1 / me_range=24 / chroma_me=1 / trellis=2 / 8x8dct=1 / cqm=0 / deadzone=21,11 / fast_pskip=0 / chroma_qp_offset=-2 / threads=8 / lookahead_threads=1 / sliced_threads=0 / nr=0 / decimate=0 / interlaced=0 / bluray_compat=0 / constrained_intra=0 / fgo=0 / bframes=9 / b_pyramid=2 / b_adapt=2 / b_bias=0 / direct=3 / weightb=1 / open_gop=0 / weightp=2 / keyint=250 / keyint_min=23 / scenecut=40 / intra_refresh=0 / rc_lookahead=60 / rc=crf / mbtree=0 / crf=16.0000 / qcomp=0.60 / qpmin=0:0:0 / qpmax=69:69:69 / qpstep=4 / vbv_maxrate=62500 / vbv_bufsize=78125 / crf_max=0.0 / nal_hrd=none / filler=0 / ip_ratio=1.40 / pb_ratio=1.30 / aq=3:0.80 / aq-sensitivity=10.00 / aq-factor=1.00:1.00:1.00 / aq2=0 / aq3=0
Language                    : English
Default                     : Yes
Forced                      : No
Audio #1
ID                          : 2
Format                      : AC-3
Format/Info                 : Audio Coding 3
Mode extension              : CM (complete main)
Format settings, Endianness : Big
Codec ID                    : A_AC3
Duration                    : 41mn 37s
Bit rate mode               : Constant
Bit rate                    : 384 Kbps
Channel(s)                  : 6 channels
Channel positions           : Front: L C R, Side: L R, LFE
Sampling rate               : 48.0 KHz
Compression mode            : Lossy
Stream size                 : 114 MiB (6%)
Language                    : Russian
Default                     : Yes
Forced                      : No
Audio #2
ID                          : 3
Format                      : E-AC-3
Format/Info                 : Audio Coding 3
Format settings, Endianness : Big
Codec ID                    : A_EAC3
Duration                    : 41mn 37s
Bit rate mode               : Constant
Bit rate                    : 640 Kbps
Channel(s)                  : 6 channels
Channel positions           : Front: L C R, Side: L R, LFE
Sampling rate               : 48.0 KHz
Compression mode            : Lossy
Stream size                 : 191 MiB (9%)
Language                    : English
Default                     : No
Forced                      : No
Text
ID                          : 4
Format                      : UTF-8
Codec ID                    : S_TEXT/UTF8
Codec ID/Info               : UTF-8 Plain Text
Language                    : English
Default                     : Yes
Forced                      : No

Скриншоты

Внимание! Раздача ведётся путём добавления новых серий.

Внимание! Раздача ведётся путём добавления новых серий; при каждом добавлении создётся новый торрент. Чтобы начать докачку новой серии, пользователям необходимо сделать следующее:
  • Остановить скачивание.
  • Удалить старый торрент у себя из клиента (старые серии удалять не надо).
  • Скачать новый торрент и запустить его у себя в клиенте вместо старого, при этом указать клиенту путь в старую папку куда и должно происходить скачивание новых серий.
    Ваш клиент при этом должен произвести хеширование (проверку) старой папки (если не производит сам - помогите ему сделать это), и будет докачивать только те серии которых у вас ещё нет. Старые серии при этом не удаляются, а продолжают раздаваться!
    Eсли вы уже удалили старые серии, то предотвратить повторную закачку старых серий можно, отжав галочку в соответсвующих местах при запуске нового торрента. По возможности, желательно не удалять старые серии как можно дольше чтобы релизёр не столько продолжал раздавать старые серии, а смог сконцентрироваться на новых.
Вне форума [Профиль] [ЛС]
Похожие темы
Форум Тема Автор Торрент Отв. Посл. сообщение
./templates/default/images/folder_dl.gif Фантастика, фэнтези, ужасы, мистика Владимир Стрельников | Опасные тропы. Рядовой срочной службы (2017) [MP3] }{@R0N
1 | 0

0 | 376

3

2018-01-14 16:42
}{@R0N Последнее
./templates/default/images/folder_dl.gif Фантастика, фэнтези, ужасы, мистика Владимир Стрельников | Простые Оружные Парни (2017) [MP3] }{@R0N
1 | 0

0 | 325

3

2018-01-14 16:43
}{@R0N Последнее
Показать сообщения:    
Ответить на тему

Текущее время: Сегодня 02:25

Часовой пояс: GMT + 3



Вы не можете начинать темы
Вы не можете отвечать на сообщения
Вы не можете редактировать свои сообщения
Вы не можете удалять свои сообщения
Вы не можете голосовать в опросах
Вы не можете прикреплять файлы к сообщениям
Вы не можете скачивать файлы