Сегодня идет свободное скачивание без начисления Download

Особо Тяжкие Преступления / Major Crimes / Сезон: 4 / Серии: 1-5 из 23 (Michael M. Robin) [2015, США, детектив, WEB-DL 720p] DVO (DreamRecords)

Ответить на тему
 
Автор
Сообщение

Omen ®

Стаж: 5 лет 9 месяцев

Сообщений: 184433

Торрент-статистика

Пост 25-Ноя-2016 01:00

[Цитировать]

Особо Тяжкие Преступления / Major Crimes- Год выпуска: 2015
Страна: США
Жанр: детектив
Продолжительность: 00:44:00
Перевод: Любительский (двухголосый закадровый) - (DreamRecords)
Cубтитры: Отсутствуют
Режиссёр: Michael M. Robin
В ролях: Мэри МакДоннел, Джордж Бейли, Тони Дэнесон, Майкал Пол Чен, Раймонд Круз
Описание: Продолжение сериала Ищейка. После увольнения Бренды Ли Джонсон руководство Отделом Ососбо Опасных преступлений полиции Лос-Анджелеса берет в свои руки капитан Рэйдор. Однако ей предстоит работать в команде, котроая заранее испытывает к ней антипатию, ведь антипатию к ней всегда испытывала шеф Джонсон.-Доп. информация:Монтаж и сведение звука: Алексей Фокин
Автор рипа: Алексей Фокин
Роли озвучивали:
  • Владимир Чистохин
  • Полина Касаткина
    Автор постера: Вячеслав Вернидуб-Сэмпл-Качество: WEB-DL 720p
    Формат: MKV
    Видео кодек: h.264
    Аудио кодек: AC3
    Видео: 1 280x718, 3 927 kb/s, 23.976 fps, 0.178 bit/pixel
    Аудио 1: AC3, 48 KHz, 6 ch, 384 Kbps - Rus
    Субтитры: Отсутствуют-

MediaInfo

Код:
Format                      : Matroska
Format version              : Version 2
File size                   : 1.30 GiB
Duration                    : 42 min 10 s
Overall bit rate            : 4 398 kb/s
Encoded date                : UTC 2016-11-22 23:39:45
Writing application         : mkvmerge v5.8.0 ('No Sleep / Pillow') built on Sep  2 2012 15:37:04
Writing library             : libebml v1.2.3 + libmatroska v1.3.0
Video
ID                          : 1
Format                      : AVC
Format/Info                 : Advanced Video Codec
Format profile              : High@L3.1
Format settings, CABAC      : No
Format settings, ReFrames   : 2 frames
Codec ID                    : V_MPEG4/ISO/AVC
Duration                    : 42 min 10 s
Bit rate                    : 3 927 kb/s
Width                       : 1 280 pixels
Height                      : 718 pixels
Display aspect ratio        : 16:9
Frame rate mode             : Constant
Frame rate                  : 23.976 FPS
Color space                 : YUV
Chroma subsampling          : 4:2:0
Bit depth                   : 8 bits
Scan type                   : Progressive
Bits/(Pixel*Frame)          : 0.178
Stream size                 : 1.16 GiB (89%)
Language                    : English
Default                     : Yes
Forced                      : No
Color range                 : Limited
Color primaries             : BT.709
Transfer characteristics    : BT.709
Matrix coefficients         : BT.709
Audio
ID                          : 2
Format                      : AC-3
Format/Info                 : Audio Coding 3
Mode extension              : CM (complete main)
Format settings, Endianness : Big
Codec ID                    : A_AC3
Duration                    : 42 min 10 s
Bit rate mode               : Constant
Bit rate                    : 384 kb/s
Channel(s)                  : 6 channels
Channel positions           : Front: L C R, Side: L R, LFE
Sampling rate               : 48.0 kHz
Frame rate                  : 31.250 FPS (1536 spf)
Bit depth                   : 16 bits
Compression mode            : Lossy
Stream size                 : 116 MiB (9%)
Title                       : DreamRecords
Language                    : Russian
Default                     : Yes
Forced                      : No
[/spoiler]

Внимание! Раздача ведется путем добавления серий:

Код:
Внимание! Раздача ведётся путём добавления новых серий; при каждом добавлении создётся новый торрент. Чтобы начать докачку новой серии, пользователям необходимо сделать следующее:
(1) остановить скачивание,
(2) удалить старый торрент у себя из клиента (старые серии удалять не надо),
(3) скачать новый торрент и запустить его у себя в клиенте вместо старого, при этом указать клиенту путь в старую папку куда и должно происходить скачивание новых серий.
Ваш клиент при этом должен произвести хеширование (проверку) старой папки (если не производит сам - помогите ему сделать это), и будет докачивать только те серии которых у вас ещё нет. Старые серии при этом не удаляются, а продолжают раздаваться!
Eсли вы уже удалили старые серии, то предотвратить повторную закачку старых серий можно, отжав галочку в соответсвующих местах при запуске нового торрента. По возможности, желательно не удалять старые серии как можно дольше чтобы релизёр не столько продолжал раздавать старые серии, а смог сконцентрироваться на новых.

Скриншоты

-[url=viewtopic.php?t=5315814]Раздача WEB-DLRip 400p[/url]-Добавлена 5 серия!-Не забываем говорить "Спасибо!" -
Вне форума [Профиль] [ЛС]
Показать сообщения:    
Ответить на тему

Текущее время: Сегодня 07:06

Часовой пояс: GMT + 3



Вы не можете начинать темы
Вы не можете отвечать на сообщения
Вы не можете редактировать свои сообщения
Вы не можете удалять свои сообщения
Вы не можете голосовать в опросах
Вы не можете прикреплять файлы к сообщениям
Вы не можете скачивать файлы