Сегодня идет свободное скачивание без начисления Download

Симпсоны / The Simpsons / Сезон: 28 / Серии: 1-5 (22) (Мэтт Гроунинг / Matt Groening) [2016, Мультсериал, комедия, сатира, WEB-DL 1080p] MVO (VO-production) + Original + Subs (Rus, Eng)

Ответить на тему
 
Автор
Сообщение

Omen ®

Стаж: 4 года 10 месяцев

Сообщений: 190643

Торрент-статистика

Пост 21-Ноя-2016 01:00

[Цитировать]

Симпсоны / The Simpsons- Страна: США
Год выпуска: 2016
Жанр: Мультсериал, комедия, сатира
Перевод: Профессиональный (многоголосый закадровый)
Продолжительность: ~22 минуты
Русские субтитры: есть (1-4 серии) [отдельно]
-Режиссёр: Мэтт Гроунинг / Matt Groening-Роли озвучивали: Дэн Кастелланета, Джули Кавнер, Нэнси Картрайт, Ярдли Смит, Гарри Ширер, Хэнк Азария, Памела Хейден, Тресс МакНилл, Карл Видерготт, Мэгги Росвэлл и другие.-Описание: Симпсоны живут в вымышленном городе Спрингфилд, со своим обществом и историей. Гомер - отец семейства, который даёт плохие советы и работает инспектором по безопасности на атомной электростанции; Мардж - любящая мать и жена, старается сохранить спокойствие в семье; Барт - 10 летний хулиган; Лиза - философский 8-летний ребёнок; и Мэгги - младенец, который общается посредством соски.-Сэмпл-**Качество: WEB-DL 1080p
**Формат: MKV
**Видео:
**#AVC, 1916x1076, 23.976 fps, ~5000 kbps (1-3, 5 серии)
**#AVC, 1920x1080, 23.976 fps, ~5000 kbps (4 серия)
**Аудио Rus: AC3, 48 KHz, 2 ch, 256 kbps (VO-production)
**Аудио Eng: AC3, 48 KHz, 6 ch, 384 kbps
**Субтитры: русские (1-4 серии) [отдельно], английские

Подробные технические данные

GeneralUnique ID : 191916312701080181840856914703831121872 (0x9061BCC29FF5E8F9A32A4D054BE9BFD0)Complete name : C:\The Simpsons (Season 28) WEB-DL 1080p\01. Monty Burns' Fleeing Circus.mkvFormat : MatroskaFormat version : Version 4 / Version 2File size : 867 MiBDuration : 21mn 10sOverall bit rate : 5 729 KbpsEncoded date : UTC 2016-10-07 21:40:22Writing application : mkvmerge v9.1.0 ('Little Earthquakes') 64bitWriting library : libebml v1.3.3 + libmatroska v1.4.4Cover : YesAttachments : cover.png
VideoID : 1Format : AVCFormat/Info : Advanced Video CodecFormat profile : High@L4Format settings, CABAC : YesFormat settings, ReFrames : 4 framesFormat settings, GOP : N=1Codec ID : V_MPEG4/ISO/AVCDuration : 21mn 10sBit rate : 5 054 KbpsWidth : 1 916 pixelsHeight : 1 076 pixelsDisplay aspect ratio : 16:9Frame rate mode : ConstantFrame rate : 23.976 (24000/1001) fpsColor space : YUVChroma subsampling : 4:2:0Bit depth : 8 bitsScan type : ProgressiveBits/(Pixel*Frame) : 0.102Stream size : 765 MiB (88%)Language : EnglishDefault : YesForced : NoColor range : LimitedColor primaries : BT.709Transfer characteristics : BT.709Matrix coefficients : BT.709
Audio #1ID : 2Format : AC-3Format/Info : Audio Coding 3Mode extension : CM (complete main)Format settings, Endianness : BigCodec ID : A_AC3Duration : 21mn 10sBit rate mode : ConstantBit rate : 256 KbpsChannel(s) : 2 channelsChannel positions : Front: L RSampling rate : 48.0 KHzFrame rate : 31.250 fps (1536 spf)Compression mode : LossyStream size : 38.8 MiB (4%)Title : VO-productionLanguage : RussianDefault : YesForced : No
Audio #2ID : 3Format : AC-3Format/Info : Audio Coding 3Mode extension : CM (complete main)Format settings, Endianness : BigCodec ID : A_AC3Duration : 21mn 10sBit rate mode : ConstantBit rate : 384 KbpsChannel(s) : 6 channelsChannel positions : Front: L C R, Side: L R, LFESampling rate : 48.0 KHzFrame rate : 31.250 fps (1536 spf)Compression mode : LossyStream size : 58.1 MiB (7%)Language : EnglishDefault : NoForced : No
TextID : 4Format : UTF-8Codec ID : S_TEXT/UTF8Codec ID/Info : UTF-8 Plain TextDuration : 21mn 1sBit rate : 86 bpsCount of elements : 498Stream size : 13.4 KiB (0%)Language : EnglishDefault : NoForced : No

Список серий

01. Пролетевший цирк Монти Бернса (Monty Burns' Fleeing Circus)
02. Друзья и семья (Friends and Family)
03. Город (The Town)
04. Домик ужасов на дереве XXVII (Treehouse of Horror XXVII)
05. Доверяй, но проверяй (Trust but Clarify)

Скриншоты

Внимание! Раздача ведётся путём добавления новых серий

Внимание! Раздача ведётся путём добавления новых серий; при каждом добавлении создаётся новый торрент. Чтобы начать докачку новой серии, пользователям необходимо сделать следующее:
(1) остановить скачивание,
(2) удалить старый торрент у себя из клиента (старые серии удалять не надо),
(3) скачать новый торрент и запустить его у себя в клиенте вместо старого, при этом указать клиенту путь в старую папку куда и должно происходить скачивание новых серий.
Ваш клиент при этом должен произвести хеширование (проверку) старой папки (если не производит сам - помогите ему сделать это), и будет докачивать только те серии, которых у вас ещё нет. Старые серии при этом не удаляются, а продолжают раздаваться!
Если вы уже удалили старые серии, то предотвратить повторную закачку старых серий можно, отжав галочку в соответствующих местах при запуске нового торрента. По возможности, желательно не удалять старые серии как можно дольше, чтобы релизёр не столько продолжал раздавать старые серии, а смог сконцентрироваться на новых.
Обновление будет после выхода какого-то количества серий!
(Обновление субтитров не гарантировано!)
Вне форума [Профиль] [ЛС]
Показать сообщения:    
Ответить на тему

Текущее время: Сегодня 12:38

Часовой пояс: GMT + 3



Вы не можете начинать темы
Вы не можете отвечать на сообщения
Вы не можете редактировать свои сообщения
Вы не можете удалять свои сообщения
Вы не можете голосовать в опросах
Вы не можете прикреплять файлы к сообщениям
Вы не можете скачивать файлы