Сегодня идет свободное скачивание без начисления Download

Гриффины / Family Guy / Сезон: 15 / Серии: 1-4 (?) (Сет МакФарлейн / Seth MacFarlane) [2016, Мультсериал, комедия, сатира, пародия, чёрный юмор, буффонада, ситком, WEB-DL 1080p] MVO (Filiza Studio) + Original + Subs (Eng)

Ответить на тему
 
Автор
Сообщение

Omen ®

Стаж: 5 лет

Сообщений: 190529

Торрент-статистика

Пост 21-Ноя-2016 01:00

[Цитировать]

Гриффины / Family Guy- Страна: США
Год выпуска: 2016
Жанр: Мультсериал, комедия, сатира, пародия, чёрный юмор, буффонада, ситком
Перевод: Профессиональный (многоголосый закадровый)
Продолжительность: ~22 минуты
Русские субтитры: нет
-Режиссёр: Сет МакФарлейн / Seth MacFarlane-Роли озвучивали: Сет МакФарлейн, Алекс Борштейн, Сет Грин, Мила Кунис, Майк Генри и другие.-Описание: "Гриффины" (Family Guy) - анимационное ТВ-Шоу, созданное Сетом МакФарлейном (Seth MacFarlane) для телеканала FOX. Как нетрудно догадаться, главными героями шоу является семейка Гриффинов: тупой, но полный сумашедших идей, составляющих львиную долю шуток сериала, отец семейства Питер; его любящя и терпеливая жена Лойс, всеми силами пытающаяся превратить Гриффинов в нормальную семью; их интеллектуально развитый не по годам, вынашивающий идею мирового господства младший сын Стьюи; дочь-ботаник, обречённая из-за этого на одиночество и непонимание как в школе так и дома, Мэг; и 13-ти летний отсталый в развитии лет на 10, сын Крис. Также полноценным членом семьи является пёс Брайн - склонный к меланхолии эстет, спокойно наблюдающий с бокалом вина в лапе над приключениями Питера и остальных членов семьи (и это при всём притом, что остальные собаки в сериале не являются очеловеченными).-Сэмпл-**Качество: WEB-DL 1080p
**Формат: MKV
**Видео: AVC, 1920x1080, 23.976 fps, ~5000 kbps
**Аудио Rus: AC3, 48 KHz, 6 ch, 384 kbps (Filiza)
**Аудио Eng: AC3, 48 KHz, 6 ch, 384 kbps
**Субтитры: русские (forced) [2c.], английские

Подробные технические данные

GeneralUnique ID : 231109832668428643184653161464330746792 (0xADDE227CDE6288138D86083B2E287BA8)Complete name : C:\Family Guy (Season 15) WEB-DL 1080p\01. The Boys in the Band.mkvFormat : MatroskaFormat version : Version 4 / Version 2File size : 871 MiBDuration : 21mn 35sOverall bit rate : 5 638 KbpsEncoded date : UTC 2016-11-19 15:17:03Writing application : mkvmerge v9.1.0 ('Little Earthquakes') 64bitWriting library : libebml v1.3.3 + libmatroska v1.4.4
VideoID : 1Format : AVCFormat/Info : Advanced Video CodecFormat profile : High@L4Format settings, CABAC : YesFormat settings, ReFrames : 4 framesCodec ID : V_MPEG4/ISO/AVCDuration : 21mn 35sBit rate : 4 868 KbpsWidth : 1 920 pixelsHeight : 1 080 pixelsDisplay aspect ratio : 16:9Frame rate mode : ConstantFrame rate : 23.976 (24000/1001) fpsColor space : YUVChroma subsampling : 4:2:0Bit depth : 8 bitsScan type : ProgressiveBits/(Pixel*Frame) : 0.098Stream size : 752 MiB (86%)Language : EnglishDefault : YesForced : NoColor range : LimitedColor primaries : BT.709Transfer characteristics : BT.709Matrix coefficients : BT.709
Audio #1ID : 2Format : AC-3Format/Info : Audio Coding 3Mode extension : CM (complete main)Format settings, Endianness : BigCodec ID : A_AC3Duration : 21mn 35sBit rate mode : ConstantBit rate : 384 KbpsChannel(s) : 6 channelsChannel positions : Front: L C R, Side: L R, LFESampling rate : 48.0 KHzFrame rate : 31.250 fps (1536 spf)Compression mode : LossyStream size : 59.3 MiB (7%)Title : FilizaLanguage : RussianDefault : YesForced : No
Audio #2ID : 3Format : AC-3Format/Info : Audio Coding 3Mode extension : CM (complete main)Format settings, Endianness : BigCodec ID : A_AC3Duration : 21mn 35sBit rate mode : ConstantBit rate : 384 KbpsChannel(s) : 6 channelsChannel positions : Front: L C R, Side: L R, LFESampling rate : 48.0 KHzFrame rate : 31.250 fps (1536 spf)Compression mode : LossyStream size : 59.3 MiB (7%)Language : EnglishDefault : NoForced : No
TextID : 4Format : UTF-8Codec ID : S_TEXT/UTF8Codec ID/Info : UTF-8 Plain TextDuration : 20mn 53sBit rate : 122 bpsCount of elements : 570Stream size : 18.7 KiB (0%)Language : EnglishDefault : NoForced : No

Список серий

01. Оркестранты (The Boys in the Band)
02. Букмекер года (Bookie of the Year)
03. Американский ГИГ-оло (American Gigg-olo)
04. Внутри Гриффинов (Inside Family Guy)

Скриншоты

Внимание! Раздача ведётся путём добавления новых серий

Внимание! Раздача ведётся путём добавления новых серий; при каждом добавлении создаётся новый торрент. Чтобы начать докачку новой серии, пользователям необходимо сделать следующее:
(1) остановить скачивание,
(2) удалить старый торрент у себя из клиента (старые серии удалять не надо),
(3) скачать новый торрент и запустить его у себя в клиенте вместо старого, при этом указать клиенту путь в старую папку куда и должно происходить скачивание новых серий.
Ваш клиент при этом должен произвести хеширование (проверку) старой папки (если не производит сам - помогите ему сделать это), и будет докачивать только те серии, которых у вас ещё нет. Старые серии при этом не удаляются, а продолжают раздаваться!
Если вы уже удалили старые серии, то предотвратить повторную закачку старых серий можно, отжав галочку в соответствующих местах при запуске нового торрента. По возможности, желательно не удалять старые серии как можно дольше, чтобы релизёр не столько продолжал раздавать старые серии, а смог сконцентрироваться на новых.
Обновление будет неизвестно когда!
Вне форума [Профиль] [ЛС]
Показать сообщения:    
Ответить на тему

Текущее время: Сегодня 10:39

Часовой пояс: GMT + 3



Вы не можете начинать темы
Вы не можете отвечать на сообщения
Вы не можете редактировать свои сообщения
Вы не можете удалять свои сообщения
Вы не можете голосовать в опросах
Вы не можете прикреплять файлы к сообщениям
Вы не можете скачивать файлы