Сегодня идет свободное скачивание без начисления Download

Полюби меня / Please Like Me / Сезон: 4 / Серии 1 (6) (Мэттью Савилл / Matthew Saville) [2016, Австралия, комедия, WEB-Rip 720p] Original Eng + Sub Rus, Eng

Ответить на тему
 
Автор
Сообщение

Omen ®

Стаж: 5 лет 6 месяцев

Сообщений: 186946

Торрент-статистика

Пост 20-Ноя-2016 01:01

[Цитировать]

Полюби меня / Please Like Me
Сезон 4
Год выпуска: 2016
Страна: Австралия
Жанр: Комедия
Продолжительность: 6 х 25 мин
Перевод: Субтитры, русские, английские (SRT)
Режиссер: Мэттью Савилл / Matthew Saville
В ролях: Джош Томас, Дебра Лоуренс, Дэвид Робертс, Вэйд Бриггс, Никита Ровер-Притчард, Кэйтлин Стэйси, Thomas Ward, Рени Лим, Джуди Фарр, Пол Доубер и др.
Описание: Очередное продолжение приключений Джоша, странноватого австралийского паренька...

Качество: WEB-Rip 720p
Формат: MKV
Видео: x264; 1280x720; 25 fps; ~4000 kbps
Аудио: AAC, 48 kHz, 128 kbps, Stereo | Original (English)

Список серий (дата выхода):

1 - Babaganoush / Баба гануш (9 Nov. 2016)
2 - Porridge / Овсянка (16 Nov. 2016)
3 - Beluga Caviar / Черная икра (23 Nov. 2016)
4 - Degustation / Дегустация (30 Nov. 2016)
5 - Burrito Bowl / Буррито (7 Dec. 2016)
6 - Souvlaki / Сувлаки (14 Dec. 2016)

MediaInfo

Общее
Полное имя : Please.Like.Me.S04E01.Babaganoush.mkv
Формат : Matroska
Версия формата : Version 4 / Version 2
Размер файла : 725 Мбайт
Продолжительность : 25 м. 0 с.
Общий поток : 4053 Кбит/сек
Дата кодирования : UTC 2016-11-19 19:57:31
Программа кодирования : mkvmerge v8.3.0 ('Over the Horizon') 64bit
Библиотека кодирования : libebml v1.3.1 + libmatroska v1.4.2
Видео
Идентификатор : 1
Формат : AVC
Формат/Информация : Advanced Video Codec
Профиль формата : High@L4.1
Параметр CABAC формата : Да
Параметр ReFrames формата : 9 кадров
Идентификатор кодека : V_MPEG4/ISO/AVC
Продолжительность : 25 м. 0 с.
Битрейт : 3918 Кбит/сек
Ширина : 1280 пикселей
Высота : 720 пикселей
Соотношение сторон : 16:9
Режим частоты кадров : Постоянный
Частота кадров : 25,000 кадров/сек
Цветовое пространство : YUV
Субдискретизация насыщенности : 4:2:0
Битовая глубина : 8 бит
Тип развёртки : Прогрессивная
Бит/(Пиксели*Кадры) : 0.170
Размер потока : 701 Мбайт (97%)
Библиотека кодирования : x264 core 148 r2721 72d53ab
Настройки программы : cabac=1 / ref=9 / deblock=1:-3:-3 / analyse=0x3:0x133 / me=umh / subme=10 / psy=1 / psy_rd=1.00:0.00 / mixed_ref=1 / me_range=48 / chroma_me=1 / trellis=2 / 8x8dct=1 / cqm=0 / deadzone=21,11 / fast_pskip=0 / chroma_qp_offset=-2 / threads=12 / lookahead_threads=2 / sliced_threads=0 / nr=0 / decimate=0 / interlaced=0 / bluray_compat=0 / constrained_intra=0 / bframes=9 / b_pyramid=2 / b_adapt=2 / b_bias=0 / direct=3 / weightb=1 / open_gop=0 / weightp=2 / keyint=250 / keyint_min=25 / scenecut=40 / intra_refresh=0 / rc_lookahead=64 / rc=crf / mbtree=0 / crf=17.5 / qcomp=0.60 / qpmin=0 / qpmax=69 / qpstep=4 / vbv_maxrate=62500 / vbv_bufsize=78125 / crf_max=0.0 / nal_hrd=none / filler=0 / ip_ratio=1.40 / pb_ratio=1.30 / aq=3:0.80
Default : Да
Forced : Нет
Аудио
Идентификатор : 2
Формат : AAC
Формат/Информация : Advanced Audio Codec
Профиль формата : LC
Идентификатор кодека : A_AAC
Продолжительность : 25 м. 0 с.
Битрейт : 132 Кбит/сек
Каналы : 2 канала
Расположение каналов : Front: L R
Частота : 48,0 КГц
Частота кадров : 46,875 кадров/сек (1024 spf)
Метод сжатия : С потерями
Задержка видео : 7 мс.
Размер потока : 23,7 Мбайт (3%)
Язык : English
Default : Да
Forced : Нет
Текст #1
Идентификатор : 3
Формат : UTF-8
Идентификатор кодека : S_TEXT/UTF8
Идентификатор кодека/Информация : UTF-8 Plain Text
Продолжительность : 23 м. 57 с.
Битрейт : 191 бит/сек
Count of elements : 470
Размер потока : 33,6 Кбайт (0%)
Язык : Russian
Default : Да
Forced : Нет
Текст #2
Идентификатор : 4
Формат : UTF-8
Идентификатор кодека : S_TEXT/UTF8
Идентификатор кодека/Информация : UTF-8 Plain Text
Продолжительность : 24 м. 20 с.
Битрейт : 114 бит/сек
Count of elements : 520
Размер потока : 20,5 Кбайт (0%)
Язык : English
Default : Нет
Forced : Нет

Раздача ведётся путём добавления новых серий!

Внимание! Раздача ведётся путём добавления новых серий; при каждом добавлении создаётся новый торрент-файл. Чтобы начать дозакачку новой серии, пользователям необходимо сделать следующее:
(1) остановить скачивание,
(2) удалить старый торрент-файл у себя из клиента (старые серии удалять не надо),
(3) скачать новый торрент-файл и запустить его у себя в клиенте вместо старого, при этом указать клиенту путь в старую папку куда и должно происходить скачивание новых серий.
Ваш клиент при этом должен произвести хеширование (проверку) старой папки (если не производит сам - помогите ему сделать это), и будет докачивать только те серии которых у вас ещё нет. Старые серии при этом не удаляются, а продолжают раздаваться!
Eсли вы уже удалили старые серии, то предотвратить повторную закачку старых серий можно, отжав галочку в соответствующих местах при запуске нового торрента.

Скриншоты


Вне форума [Профиль] [ЛС]
Показать сообщения:    
Ответить на тему

Текущее время: Сегодня 07:32

Часовой пояс: GMT + 3



Вы не можете начинать темы
Вы не можете отвечать на сообщения
Вы не можете редактировать свои сообщения
Вы не можете удалять свои сообщения
Вы не можете голосовать в опросах
Вы не можете прикреплять файлы к сообщениям
Вы не можете скачивать файлы