Сегодня идет свободное скачивание без начисления Download

Любить нельзя убить / Amorteamo / Сезон: 1 / Серии: 1-5 из 5 (Флавия Ласерда / Flávia Lacerda) [2016, Бразилия, драма, триллер, мистика, HDTVRip 720p] DVO (SNK-TV) + Original

Ответить на тему
 
Автор
Сообщение

Omen ®

Стаж: 5 лет 11 месяцев

Сообщений: 184329

Торрент-статистика

Пост 20-Ноя-2016 01:00

[Цитировать]

Любить нельзя убить / Amorteamo- Год выпуска: 2016
Страна: Бразилия
Жанр: драма, триллер, мистика
Продолжительность: ~40 минут-Перевод: Любительский (двухголосый закадровый) - /SNK-TV/-Режиссёр: Флавия Ласерда / Flávia Lacerda
В ролях: Марина Руй Барбоза, Джонни Массаро, Летисия Сабателла, Дэниэл де Оливейра, Джексон Антунес, Мария Луиза Мендонса, Гута Стрессер, Густаву Фалькан, Бруно Гарсиа, Арамис Триндади-Описание: События происходят в Ресифи в конце 19-начале 20 веков...-
Скачать сэмпл
Релиз подготовлен по заказу: WB-кинотеатр
Перевод: группа "Из Бразилии с любовью"
Озвучили и все остальное: SNK-TV--Качество: HDTVRip 720p
Формат: MKV
Видео кодек: H264
Аудио кодек: AC3
Видео: MPEG4 Video (H264) 1280x720 29.97fps ~3 789 Kbps 0.173 bit/pixel
Аудио Rus: Dolby AC3 48000Hz stereo 192kbps [SNK-TV]
Аудио Eng: Dolby AC3 48000Hz stereo 192kbps [Оригинал]-

Список серий

01.
02.
03.
04.
05.

Скриншоты

-

MediaInfo

General
Unique ID : 239712176873768004342845198968231562527 (0xB456E2CD754F21E48543E8770C100D1F)
Complete name : W:\Торка на W\Amorteamo\Amorteamo 720p\Amorteamo.S01E01.720p.HDTV.SNK-TV.mkv
Format : Matroska
Format version : Version 4 / Version 2
File size : 1.20 GiB
Duration : 40mn 28s
Overall bit rate : 4 261 Kbps
Encoded date : UTC 2016-11-19 07:01:57
Writing application : mkvmerge v8.1.0 ('Psychedelic Postcard') 64bit
Writing library : libebml v1.3.1 + libmatroska v1.4.2
DURATION : 00:40:28.320000000
NUMBER_OF_FRAMES : 75885
NUMBER_OF_BYTES : 58279680
_STATISTICS_WRITING_APP : mkvmerge v8.1.0 ('Psychedelic Postcard') 64bit
_STATISTICS_WRITING_DATE_UTC : 2016-11-19 07:01:57
_STATISTICS_TAGS : BPS DURATION NUMBER_OF_FRAMES NUMBER_OF_BYTES
Video
ID : 1
Format : AVC
Format/Info : Advanced Video Codec
Format profile : High@L4.1
Format settings, CABAC : Yes
Format settings, ReFrames : 9 frames
Format settings, GOP : M=2, N=24
Codec ID : V_MPEG4/ISO/AVC
Duration : 40mn 28s
Bit rate : 3 792 Kbps
Width : 1 280 pixels
Height : 720 pixels
Display aspect ratio : 16:9
Frame rate mode : Constant
Frame rate : 29.970 fps
Color space : YUV
Chroma subsampling : 4:2:0
Bit depth : 8 bits
Scan type : Progressive
Bits/(Pixel*Frame) : 0.137
Stream size : 1.07 GiB (89%)
Language : Portuguese
Default : No
Forced : No
DURATION : 00:40:28.058000000
NUMBER_OF_FRAMES : 72769
NUMBER_OF_BYTES : 1176145362
_STATISTICS_WRITING_APP : mkvmerge v8.1.0 ('Psychedelic Postcard') 64bit
_STATISTICS_WRITING_DATE_UTC : 2016-11-19 07:01:57
_STATISTICS_TAGS : BPS DURATION NUMBER_OF_FRAMES NUMBER_OF_BYTES
Audio #1
ID : 2
Format : AC-3
Format/Info : Audio Coding 3
Mode extension : CM (complete main)
Format settings, Endianness : Big
Codec ID : A_AC3
Duration : 40mn 28s
Bit rate mode : Constant
Bit rate : 192 Kbps
Channel(s) : 2 channels
Channel positions : Front: L R
Sampling rate : 48.0 KHz
Compression mode : Lossy
Delay relative to video : -200ms
Stream size : 55.6 MiB (5%)
Title : SNK-TV
Language : Russian
Default : Yes
Forced : No
Audio #2
ID : 3
Format : AC-3
Format/Info : Audio Coding 3
Mode extension : CM (complete main)
Format settings, Endianness : Big
Codec ID : A_AC3
Duration : 40mn 28s
Bit rate mode : Constant
Bit rate : 192 Kbps
Channel(s) : 2 channels
Channel positions : Front: L R
Sampling rate : 48.0 KHz
Compression mode : Lossy
Delay relative to video : -200ms
Stream size : 55.6 MiB (5%)
Title : Por
Language : Portuguese
Default : No
Forced : No
--

Доп.инфа.

Описание далеко не самое информативное, согласен. Интересно снятое мыло с ходячими мертвяками.
Вне форума [Профиль] [ЛС]
Похожие темы
Форум Тема Автор Торрент Отв. Посл. сообщение
./templates/default/images/folder_dl.gif Техническая и научно-популярная литература Книжная серия | В помощь радиолюбителю [69 книг] (2000-2011) [PDF, DJVU] [Обновляемая] }{@R0N
1 | 0

0 | 743

8

2018-03-09 18:51
}{@R0N Последнее
Показать сообщения:    
Ответить на тему

Текущее время: Сегодня 07:53

Часовой пояс: GMT + 3



Вы не можете начинать темы
Вы не можете отвечать на сообщения
Вы не можете редактировать свои сообщения
Вы не можете удалять свои сообщения
Вы не можете голосовать в опросах
Вы не можете прикреплять файлы к сообщениям
Вы не можете скачивать файлы