Сегодня идет свободное скачивание без начисления Download

Кости / Bones / Сезон: 11 / Серии: 1-22 из 22 (Стивен ДеПол, Йен Тойнтон, Аллен Крокер) [2015-2016, США, драма, криминал, детектив, WEB-DL 1080p] Dub (ТВ3) + Original

Ответить на тему
 
Автор
Сообщение

Omen ®

Стаж: 5 лет 7 месяцев

Сообщений: 185427

Торрент-статистика

Пост 19-Ноя-2016 01:00

[Цитировать]

Кости / Bones
Год выпуска: 2015-2016
Страна: США
Жанр: драма, криминал, детектив
Продолжительность: 00:43:00
Перевод: Профессиональный (дублированный) ТВ3
Режиссёр: Стивен ДеПол, Йен Тойнтон, Аллен Крокер
В ролях: Эмили Дешанель, Дэвид Бореаназ, Микаэла Конлин, Ти-Джей Тайн, Тамара Тейлор, Джон Фрэнсис Дейли, Эрик Миллеган, Патриция Белчер, Джонатан Адамс, Майкл Терри, Юджин Бирд, Райан О`Нил, Карла Галло, Райан Картрайт, Дэвид Гринман, Ти Паниц, Натан Дин, Джоэл Мур, Кэтрин Уинник, Джон М. Джексон, Стивен Фрай, Тиффани Хайнс, Брендан Фер, Билли Гиббонс, Лорен Дин, Эдди МакКлинток, Адам Либерман, Дирдри Лавджой, Джо Дэвис
Описание: Доктор Темперанс Бреннан, блестящий, но одинокий антрополог получает то, чего она меньше всего желала — напарника. Бюро посылает ей амбициозного агента ФБР Сили Бута, чтобы помочь в расследовании нераскрытых дел путем изучения и идентификации костей давно пропавших людей. Но давно умершие жертвы не единственное, с чем придется столкнуться Боунс, Буту и их команде, раскрывая преступления они часто сталкиваются с взяточничеством, коррупцией и местной разрозненностью
Сэмпл: http://multi-up.com/1127451
Качество: WEB-DL 1080p
Формат: MKV
Видео: AVC, 1920x1080 (16:9), 23.976 fps, 4 728 Kbps (0.095 bit/pixel)
Аудио: AC-3, 48.0 KHz, 2 ch, 192 Kbps, CBR (Russian)
Аудио 2: AC-3, 48.0 KHz, 6 ch, 384 Kbps, CBR (English)
Субтитры: нет
Реклама:нет

Список серий:

01 - The Loyalty in the Lie (Верность во лжи)
02 - The Brother in the Basement (Брат в фундаменте)
03 - The Donor in the Drink (Жертвенный напиток)
04 - The Carpals in the Coy-Wolves (Суставы в кой-волках)
05 - The Resurrection in the Remains (Воскрешение в остатках)
06 - The Senator in the Street Sweeper (Сенатор в уборочной машине)
07 - The Promise in the Palace (Обещание во дворце)
08 - High Treason in the Holiday Season (Государственная измена в дачный сезон)
09 - The Cowboy in the Contest (Ковбой на конкурсе)
10 - The Doom in the Boom (Рок во взрыве)
11 - The Death in the Defense (Смерть в обороне)
12 - The Murder of the Meninist (Убийство в правозащитной организации)
13 - The Monster in the Closet (Монстр в шкафу)
14 - The Last Shot at a Second Chance (Последний выстрел во второй шанс)
15 - The Fight in the Fixer (Драка в детективном агентстве)
16 - The Strike in the Chord (Забастовка в хоре)
17 - The Secret in the Service (Секрет в охране)
18 - The Movie in the Making (Фильм в процессе съёмок)
19 - The Head in the Abutment (Голова на меже)
20 - The Stiff in the Cliff (Труп в скале)
21 - The Jewel in the Crown (Жемчужина в короне)
22 - The Nightmare Within the Nightmare (Кошмар внутри кошмара)

MediaInfo

Общее
Уникальный идентификатор : 170192911500350503782325446318104961465 (0x8009F663A76328769B83F0D675F2E1B9)
Полное имя : M:\Кости. Сезон 11\Bones.s11e01.1080p.WEB-DL.Rus.Eng.mkv
Формат : Matroska
Версия формата : Version 4 / Version 2
Размер файла : 1,66 Гбайт
Продолжительность : 43 м.
Общий поток : 5412 Кбит/сек
Название фильма : Кости. Сезон 11 / Bones. Season 11 (2015-2016)
Дата кодирования : UTC 2016-11-18 11:02:29
Программа кодирования : mkvmerge v8.2.0 ('World of Adventure') 64bit
Библиотека кодирования : libebml v1.3.1 + libmatroska v1.4.2
Видео
Идентификатор : 1
Формат : AVC
Формат/Информация : Advanced Video Codec
Профиль формата : High@L4
Параметр CABAC формата : Да
Параметр ReFrames формата : 4 кадра
Идентификатор кодека : V_MPEG4/ISO/AVC
Продолжительность : 43 м.
Битрейт : 4834 Кбит/сек
Ширина : 1920 пикселей
Высота : 1080 пикселей
Соотношение сторон : 16:9
Режим частоты кадров : Постоянный
Частота кадров : 23,976 (24000/1001) кадра/сек
Цветовое пространство : YUV
Субдискретизация насыщенности : 4:2:0
Битовая глубина : 8 бит
Тип развёртки : Прогрессивная
Бит/(Пиксели*Кадры) : 0.097
Размер потока : 1,48 Гбайт (89%)
Default : Да
Forced : Нет
Цветовой диапазон : Limited
Основные цвета : BT.709
Характеристики трансфера : BT.709
Коэффициенты матрицы : BT.709
Аудио #1
Идентификатор : 2
Формат : AC-3
Формат/Информация : Audio Coding 3
Расширение режима : CM (complete main)
Параметр Endianness формата : Big
Идентификатор кодека : A_AC3
Продолжительность : 43 м.
Вид битрейта : Постоянный
Битрейт : 192 Кбит/сек
Каналы : 2 канала
Расположение каналов : Front: L R
Частота : 48,0 КГц
Частота кадров : 31,250 кадров/сек (1536 spf)
Метод сжатия : С потерями
Задержка видео : -3 мс.
Размер потока : 60,2 Мбайт (4%)
Заголовок : Профессиональный (полное дублирование) ТВ3
Язык : Russian
Default : Да
Forced : Нет
Аудио #2
Идентификатор : 3
Формат : AC-3
Формат/Информация : Audio Coding 3
Расширение режима : CM (complete main)
Параметр Endianness формата : Big
Идентификатор кодека : A_AC3
Продолжительность : 43 м.
Вид битрейта : Постоянный
Битрейт : 384 Кбит/сек
Каналы : 6 каналов
Расположение каналов : Front: L C R, Side: L R, LFE
Частота : 48,0 КГц
Частота кадров : 31,250 кадров/сек (1536 spf)
Метод сжатия : С потерями
Задержка видео : -3 мс.
Размер потока : 120 Мбайт (7%)
Язык : English
Default : Нет
Forced : Нет

Скриншоты


Вне форума [Профиль] [ЛС]
Показать сообщения:    
Ответить на тему

Текущее время: Сегодня 08:11

Часовой пояс: GMT + 3



Вы не можете начинать темы
Вы не можете отвечать на сообщения
Вы не можете редактировать свои сообщения
Вы не можете удалять свои сообщения
Вы не можете голосовать в опросах
Вы не можете прикреплять файлы к сообщениям
Вы не можете скачивать файлы