Сегодня идет свободное скачивание без начисления Download

Мистер Хутен и леди / Hooten and the Lady / Сезон: 1 / Серии: 1-8 из 8 (Джастин Молотников, Дэниэл О’Хара, Колин Тиг) [2016, Великобритания, драма, комедия, приключения, детектив, HDTVRip 1080p] MVO (Jaskier) + Original + Subs (Eng)

Ответить на тему
 
Автор
Сообщение

Omen ®

Стаж: 5 лет 11 месяцев

Сообщений: 184329

Торрент-статистика

Пост 18-Ноя-2016 01:00

[Цитировать]

-Мистер Хутен и леди | Hooten and the Lady-- Год выпуска: 2016 (1 сезон)
Страна: Великобритания
Жанр: Драма, комедия, приключения, детектив
Продолжительность: ~ 00:46:00
Перевод : Профессиональный многоголосый (закадровый) Студия Jaskier
Субтитры: Английские--Режиссёр: Джастин Молотников/Justin Molotnikov, Дэниэл О’Хара/Daniel O'Hara, Колин Тиг/Colin Teague, Энди Хэй/Andy Hay, Джулиан Холмс/Julian Holmes--В ролях: Майкл Лэндис (Улисс Хутен), Офелия Ловибонд (Леди Александра Линдо-Паркер), Джессика Хайнс (Элла Бонд), Шон Паркес (Клайв Стефенсон), Джейн Сеймур (Леди Линдо-Паркер), Джонатан Бэйли (Эдвард), Энджел Колби (Мелина), Блейк Ритсон (доктор Яннарес), Валери Лиллей (сестра Мария-Ева), Майкл Обиора (гид Джулиан), Винсент Риган (Кейн), Колин МакФарлэйн (Калеб), Стевель Марк (Рахиим) и др.--Описание: Сюжет сериала расскажет про приключения авантюриста Улисса Хутена и Леди Александры Линдо-Паркер, сотрудницы Британского музея, которые объединяются для поиска самых различных сокровищ прошлого — затерянного золотого города, пропавшего свитка Будды, 51-го яйца Фаберже и даже могилы Александра Македонского.--

Список серий

01. Амазонка | The Amazon

Леди Александра Линдо-Паркер - куратор Британского музея, отправляется в амазонские джунгли на поиски последнего лагеря исследователя викторианских времен Перси Фоссета. Но неожиданная встреча с американским авантюристом Хутеном и последовавшая череда головокружительных приключений, приводят их к легендарному Эль Дорадо…

02. Рим | Rome

Хутен просит леди Александру помочь ему разыскать давно утерянную Книгу Сивилл, спрятанную где-то в подземных катакомбах Рима. Не успела она и глазом моргнуть, как уже вламывается в Сикстинскую капеллу, отбивается от аллигаторов в подземной канализации и спасает мать из лап безумного мафиози…

03. Египет | Egypt

Леди Александра вновь объединяется с Хутеном, на сей раз, чтобы отыскать в Египте давно потерянную могилу Александра Македонского.

04. Бутан | Bhutan

Леди Александра получает наводку на след древнего свитка, который, по слухам, был написан самим Буддой. Вместе с Хутеном, которого она привлекла к этому делу, они отправляются в гималайское королевство Бутан, чтобы отыскать его, но неожиданно поиски превращаются в гонки со временем, ставки в которых – жизнь Хутена.

05. Эфиопия | Ethiopia

Когда Эллу похищают в Эфиопии, леди Александра берет из хранилищ Британского музея бесценный артефакт, который похитители требуют в качестве выкупа и просит Хутена помочь ей. Чтобы спасти ее, парочке предстоит одолеть упрямых верблюдов, безумных бандитов, а заодно и попутно разгадать загадку библейского масштаба.

06. Москва | Moscow

Леди Александра отправляется в Москву, где Хутен напал на след 51-го яйца Фаберже. Это рискованное предприятие столкнет обоих с призраками прошлого, о котором они предпочли бы позабыть.

07. Камбоджа | Cambodia

Леди Александра и Хутен пытаются разыскать в Камбодже путь в Шамбалу, где хранится бесценный драгоценный камень Чинтамани, который по легендам, может даровать бессмертие. Однако поиски сталкивают их, сначала с бандой безжалостных наркоторговцев, а после - с заклятым врагом Хутена.

08. Карибы | The Caribbean

Свадьба леди Александры оказывается под угрозой, когда за два дня до церемонии, которую тщательнейшим образом распланировала ее мать, она срывается по зову Хутена на Карибы, чтобы поохотиться на давно потерянные пиратские сокровища капитана Генри Моргана.
--Качество: HDTVRip 1080p
Формат: MKV
Видео кодек: H.264
Аудио кодек: AC3
Видео: MPEG-4 AVC, 1916x958, 25.000 fps, ~6500 kbps
Аудио 1: [Русский] AC3, 48 kHz, 2 ch, 192 kbps | Студия JASKiER
Аудио 2: [Английский] AC3, 48 kHz, 6 ch, 384 kbps
Субтитры: Английские (SRT)
Реклама: Отсутствует
--

MediaInfo

Код:
General
Unique ID                   : 197305843489516892059902220874572966551 (0x946FB924CEFE63E596BD41E0A7692A97)
Complete name               : I:\...\Hooten.and.the.Lady.S01.1080p.HDTV\Hooten.And.The.Lady.s01e02.Rome.1080p.HDTV.Rus.Eng.mkv
Format                      : Matroska
Format version              : Version 4 / Version 2
File size                   : 2.14 GiB
Duration                    : 45 min 7 s
Overall bit rate            : 6 775 kb/s
Encoded date                : UTC 2016-10-02 00:14:02
Writing application         : mkvmerge v7.5.0 ('Glass Culture') 64bit built on Jan  4 2015 16:48:44
Writing library             : libebml v1.3.1 + libmatroska v1.4.2
Video
ID                          : 1
Format                      : AVC
Format/Info                 : Advanced Video Codec
Format profile              : High@L4.1
Format settings, CABAC      : Yes
Format settings, ReFrames   : 4 frames
Codec ID                    : V_MPEG4/ISO/AVC
Duration                    : 45 min 7 s
Bit rate                    : 6 197 kb/s
Width                       : 1 916 pixels
Height                      : 958 pixels
Display aspect ratio        : 2.000
Frame rate mode             : Constant
Frame rate                  : 25.000 FPS
Color space                 : YUV
Chroma subsampling          : 4:2:0
Bit depth                   : 8 bits
Scan type                   : Progressive
Bits/(Pixel*Frame)          : 0.135
Stream size                 : 1.95 GiB (91%)
Writing library             : x264 core 148 r2705 3f5ed56
Encoding settings           : opencl=1 / cabac=1 / ref=4 / deblock=1:0:0 / analyse=0x3:0x133 / me=umh / subme=8 / psy=1 / psy_rd=1.00:0.00 / mixed_ref=1 / me_range=16 / chroma_me=1 / trellis=1 / 8x8dct=1 / cqm=0 / deadzone=21,11 / fast_pskip=1 / chroma_qp_offset=-2 / threads=12 / lookahead_threads=2 / sliced_threads=0 / nr=0 / decimate=1 / interlaced=0 / bluray_compat=0 / constrained_intra=0 / bframes=3 / b_pyramid=2 / b_adapt=2 / b_bias=0 / direct=3 / weightb=1 / open_gop=0 / weightp=2 / keyint=250 / keyint_min=25 / scenecut=40 / intra_refresh=0 / rc_lookahead=50 / rc=crf / mbtree=1 / crf=18.0 / qcomp=0.60 / qpmin=0 / qpmax=69 / qpstep=4 / ip_ratio=1.40 / aq=1:1.00
Default                     : Yes
Forced                      : No
Color range                 : Limited
Matrix coefficients         : BT.709
Audio #1
ID                          : 2
Format                      : AC-3
Format/Info                 : Audio Coding 3
Mode extension              : CM (complete main)
Format settings, Endianness : Big
Codec ID                    : A_AC3
Duration                    : 45 min 7 s
Bit rate mode               : Constant
Bit rate                    : 192 kb/s
Channel(s)                  : 2 channels
Channel positions           : Front: L R
Sampling rate               : 48.0 kHz
Frame rate                  : 31.250 FPS (1536 spf)
Bit depth                   : 16 bits
Compression mode            : Lossy
Stream size                 : 62.0 MiB (3%)
Title                       : JASKiER
Language                    : Russian
Default                     : Yes
Forced                      : No
Audio #2
ID                          : 3
Format                      : AC-3
Format/Info                 : Audio Coding 3
Mode extension              : CM (complete main)
Format settings, Endianness : Big
Codec ID                    : A_AC3
Duration                    : 45 min 7 s
Bit rate mode               : Constant
Bit rate                    : 384 kb/s
Channel(s)                  : 6 channels
Channel positions           : Front: L C R, Side: L R, LFE
Sampling rate               : 48.0 kHz
Frame rate                  : 31.250 FPS (1536 spf)
Bit depth                   : 16 bits
Compression mode            : Lossy
Stream size                 : 124 MiB (6%)
Language                    : English
Default                     : No
Forced                      : No
Text
ID                          : 4
Format                      : UTF-8
Codec ID                    : S_TEXT/UTF8
Codec ID/Info               : UTF-8 Plain Text
Duration                    : 44 min 57 s
Bit rate                    : 67 b/s
Count of elements           : 709
Stream size                 : 22.4 KiB (0%)
Language                    : English
Default                     : No
Forced                      : No
--
Вне форума [Профиль] [ЛС]
Показать сообщения:    
Ответить на тему

Текущее время: Сегодня 21:04

Часовой пояс: GMT + 3



Вы не можете начинать темы
Вы не можете отвечать на сообщения
Вы не можете редактировать свои сообщения
Вы не можете удалять свои сообщения
Вы не можете голосовать в опросах
Вы не можете прикреплять файлы к сообщениям
Вы не можете скачивать файлы