Сегодня идет свободное скачивание без начисления Download

Симпсоны / The Simpsons / Сезон: 28 / Серии: 1-5 из 22 (Мэтт Гроунинг / Matt Groening) [2016, Комедия, сатира, WEB-DLRip] MVO (VO-production) + Original

Ответить на тему
 
Автор
Сообщение

Omen ®

Стаж: 5 лет

Сообщений: 190529

Торрент-статистика

Пост 12-Ноя-2016 01:00

[Цитировать]

Симпсоны | The Simpsons- Год выпуска: 2016
Страна: США
Жанр: Комедия, сатира
Продолжительность: ~ 00:23:00-Перевод: Профессиональный (многоголосый закадровый) | VO-production-Режиссёр: Мэтт Гроунинг / Matt Groening-В ролях: Дэн Кастелланета, Джули Кавнер, Нэнси Картрайт, Ярдли Смит, Гарри Ширер, Хэнк Азария, Памела Хейден, Тресс МакНилл, Карл Видерготт, Мэгги Росвэлл и др.-Описание: Симпсоны живут в вымышленном городе Спрингфилд, со своим обществом и историей. Гомер - отец семейства, который дает плохие советы и работает инспектором безопасности на атомной электростанции; Мардж - любящая мать и жена, старается сохранить спокойствие в семье; Барт - 10 летний хулиган; Лиза - философский 8-летний ребенок; и Мэгги - младенец, который общается посредством соски.- --Качество: WEB-DLRip
Формат: AVI
Видео: XviD, 720x400 (16:9), 23,976 fps, ~ 1400 kbps
Аудио: MP3, 48 kHz, 2 ch, 128 kbps - Rus
Аудио: MP3, 48 kHz, 2 ch, 128 kbps - Eng
Субтитры: отсутствуют
Реклама: отсутствует-

MediaInfo

Код:
Общее
Формат                                   : AVI
Формат/Информация                        : Audio Video Interleave
Размер файла                             : 250 Мбайт
Продолжительность                        : 21 м.
Общий поток                              : 1654 Кбит/сек
Программа кодирования                    : VirtualDubMod 1.5.10.3 | www.virtualdub-fr.org || (build 2550/release)
Библиотека кодирования                   : VirtualDubMod build 2550/release
Видео
Идентификатор                            : 0
Формат                                   : MPEG-4 Visual
Профиль формата                          : Advanced Simple@L5
Параметр BVOP формата                    : 1
Параметр QPel формата                    : Нет
Параметр GMC формата                     : Без точки перехода
Параметр матрицы формата                 : Default (MPEG)
Идентификатор кодека                     : XVID
Идентификатор кодека/Подсказка           : XviD
Продолжительность                        : 21 м.
Битрейт                                  : 1384 Кбит/сек
Ширина                                   : 720 пикселей
Высота                                   : 400 пикселей
Соотношение сторон                       : 16:9
Частота кадров                           : 23,976 кадра/сек
Цветовое пространство                    : YUV
Субдискретизация насыщенности            : 4:2:0
Битовая глубина                          : 8 бит
Тип развёртки                            : Прогрессивная
Метод сжатия                             : С потерями
Бит/(Пиксели*Кадры)                      : 0.200
Размер потока                            : 210 Мбайт (84%)
Библиотека кодирования                   : XviD 73
Аудио #1
Идентификатор                            : 1
Формат                                   : MPEG Audio
Версия формата                           : Version 1
Профиль формата                          : Layer 3
Режим                                    : Joint stereo
Расширение режима                        : MS Stereo
Идентификатор кодека                     : 55
Идентификатор кодека/Подсказка           : MP3
Продолжительность                        : 21 м.
Вид битрейта                             : Постоянный
Битрейт                                  : 128 Кбит/сек
Каналы                                   : 2 канала
Частота                                  : 48,0 КГц
Метод сжатия                             : С потерями
Размер потока                            : 19,4 Мбайт (8%)
Выравнивание                             : Соединение по промежуткам
Продолжительность промежутка             : 42  мс. (1,00 видеокадр)
Время предзагрузки промежутка            : 504  мс.
Аудио #2
Идентификатор                            : 2
Формат                                   : MPEG Audio
Версия формата                           : Version 1
Профиль формата                          : Layer 3
Режим                                    : Joint stereo
Расширение режима                        : MS Stereo
Идентификатор кодека                     : 55
Идентификатор кодека/Подсказка           : MP3
Продолжительность                        : 21 м.
Вид битрейта                             : Постоянный
Битрейт                                  : 128 Кбит/сек
Каналы                                   : 2 канала
Частота                                  : 48,0 КГц
Метод сжатия                             : С потерями
Размер потока                            : 19,4 Мбайт (8%)
Выравнивание                             : Соединение по промежуткам
Продолжительность промежутка             : 42  мс. (1,00 видеокадр)
Время предзагрузки промежутка            : 504  мс.

Скриншоты

Список серий

01. Monty Burns' Fleeing Circus - Сбежавший цирк Монти Бернса
02. Friends and Family - Друзья и семья
03. The Town - Город
04. Treehouse of Horror XXVII - Домик ужасов на дереве № 27
05. Trust but Clarify - Доверяй, но проверяй
06. There Will Be Buds - Да будут приятели

Раздача ведется путем добавления новых серий

Когда раздача ведётся путём добавления новых серий, при каждом добавлении создётся новый торрент. Чтобы начать докачку новой серии, пользователям необходимо сделать следующее:
(1) остановить скачивание,
(2) удалить старый торрент у себя из клиента (старые серии удалять не надо),
(3) скачать новый торрент и запустить его у себя в клиенте вместо старого, при этом указать клиенту путь в старую папку, куда и должно происходить скачивание новых серий.
Ваш клиент при этом должен произвести хеширование (проверку) старой папки (если не производит сам - помогите ему сделать это), и будет докачивать только те серии, которых у вас ещё нет. Старые серии при этом не удаляются, а продолжают раздаваться!
Eсли вы уже удалили старые серии, то предотвратить повторную закачку старых серий можно, отжав галочку в соответсвующих местах при запуске нового торрента. По возможности, желательно не удалять старые серии как можно дольше, чтобы релизёр не столько продолжал раздавать старые серии, а смог сконцентрироваться на новых.
-
Вне форума [Профиль] [ЛС]
Показать сообщения:    
Ответить на тему

Текущее время: Сегодня 16:13

Часовой пояс: GMT + 3



Вы не можете начинать темы
Вы не можете отвечать на сообщения
Вы не можете редактировать свои сообщения
Вы не можете удалять свои сообщения
Вы не можете голосовать в опросах
Вы не можете прикреплять файлы к сообщениям
Вы не можете скачивать файлы