Сегодня идет свободное скачивание без начисления Download

В Наташку накончали / Giving It Forward / Creampie Cuties #04 (DoghouseDigital) [2016 г., Hardcore, Big Tits, Blowjob, Creampie, Big Dick, College, SiteRip, 480p] (Nathaly Cherie, Steve Q)

Ответить на тему
 
Автор
Сообщение

XP1971 ®

Пол:

Стаж: 4 года 11 месяцев

Сообщений: 5749

Торрент-статистика

Пост 09-Ноя-2016 11:52

[Цитировать]

-В Наташку накончали

Giving It Forward / Creampie Cuties #04
-- Страна: USA
Режиссер: N/A
Год выпуска: 2016 г.
Перевод: Отсутствует
Студия: DoghouseDigital
Продолжительность: 00:28:55
Оригинальный аудиопоток: английский
Жанр: Hardcore, Big Tits, Blowjob, Creampie, Big Dick, College-В ролях:
Nathaly Cherie, Steve Q-Оригинальное описание:
Nathaly Cherie comes across a distraught Steve Q who has just been robbed. She feels so bad for him, she takes him home and lets him cum in her pussy to help him feel better. Being robbed was worth it after being fucked by this little cream pie cutie!-Описание на русском:
В поисках вагинальнага щаздья девка Наташка Вишнёва чуть не наступила на уставшего рабочего, задремавшего прям на улице, посреди обделанных кустов. Привела домой его и дала себя недотрогу в падараг. В итоге все довольны ибо кончили)-
Контейнер: MP4
Аудио кодек: AAC
Видео кодек: AVC
Cубтитры: отсутствуют
Качество видео: SiteRip
Стандарт разрешения: 480p
Аудио: Advanced Audio | 48.0 KHz | 2 ch | 44.0 Kbps
Видео: AVC | 854x480 | 2363 Кbps | 23.976 fps | 0.128 bit/pixel

Media Info

Код:
Общее
Полное имя : Giving It Forward_[/*spam*/].mp4
Формат : MPEG-4
Профиль формата : Base Media
Идентификатор кодека : isom
Размер файла : 270 Мбайт
Продолжительность : 28 м.
Общий поток : 1303 Кбит/сек
Дата кодирования : UTC 2016-10-25 14:46:08
Дата пометки : UTC 2016-10-25 14:46:08
Видео
Идентификатор : 1
Формат : AVC
Формат/Информация : Advanced Video Codec
Профиль формата : [email protected]/*  */
Параметр CABAC формата : Да
Параметр ReFrames формата : 5 кадров
Идентификатор кодека : avc1
Идентификатор кодека/Информация : Advanced Video Coding
Продолжительность : 28 м.
Битрейт : 1255 Кбит/сек
Ширина : 854 пикселя
Высота : 480 пикселей
Соотношение сторон : 16:9
Режим частоты кадров : Постоянный
Частота кадров : 23,976 кадра/сек
Цветовое пространство : YUV
Субдискретизация насыщенности : 4:2:0
Битовая глубина : 8 бит
Тип развёртки : Прогрессивная
Бит/(Пиксели*Кадры) : 0.128
Размер потока : 260 Мбайт (96%)
Язык : English
Дата пометки : UTC 2016-10-25 14:46:13
Аудио
Идентификатор : 2
Формат : AAC
Формат/Информация : Advanced Audio Codec
Профиль формата : LC
Идентификатор кодека : 40
Продолжительность : 28 м.
Вид битрейта : Постоянный
Битрейт : 44,0 Кбит/сек
Каналы : 2 канала
Расположение каналов : Front: L R
Частота : 48,0 КГц
Метод сжатия : С потерями
Размер потока : 9,10 Мбайт (3%)
Язык : English
Дата пометки : UTC 2016-10-25 14:46:13

Скринлист

Скриншоты

                       

_________________
Вне форума [Профиль] [ЛС]
Показать сообщения:    
Ответить на тему

Текущее время: Сегодня 01:12

Часовой пояс: GMT + 3



Вы не можете начинать темы
Вы не можете отвечать на сообщения
Вы не можете редактировать свои сообщения
Вы не можете удалять свои сообщения
Вы не можете голосовать в опросах
Вы не можете прикреплять файлы к сообщениям
Вы не можете скачивать файлы