Сегодня идет свободное скачивание без начисления Download

Лучшие восемнадцатилетние сосочки / Cumshot Compilation (18OnlyGirls / AllFineGirls) [2016 г., Anal Creampie, Compilation, CumShot, SiteRip] (Unknown actress)

Ответить на тему
 
Автор
Сообщение

XP1971 ®

Пол:

Стаж: 5 лет 1 месяц

Сообщений: 6288

Торрент-статистика

Пост 09-Ноя-2016 11:41

[Цитировать]

-Лучшие
восемнадцатилетние
сосочки
-- --Cumshot Compilation
-Страна: USA
Режиссер: N/A
Год выпуска: 2016 г.
Перевод: Отсутствует
Продолжительность: 00:14:45
Студия: 18OnlyGirls / AllFineGirls
Оригинальный аудиопоток: английский
Жанр: Anal Creampie, Compilation, CumShot-В ролях:
Unknown actress-Оригинальное описание:
They are numerous and each of them in these moments, in a fit
of passion swept them quite interesting. Watch death in general.-Описание на русском:
Их действительно много и каждая из них в такие моменты в
порыве захлестнувшей их страсти довольно-таки интересна.
В общем, смотрим разнообразное кончалово .-
Контейнер: WMV
Видео кодек: VC-1
Cубтитры: отсутствуют
Качество видео: SiteRip
Аудио кодек: Windows Media
Аудио: WMAudio | 48.0 KHz | 2 ch | 192.0 Kbps
Видео: WMV3 | 854х480 | 5500 Кbps | 29.97 fps | 0.448 bit/pixel

Media Info

Код:
Общее
Полное имя : Cumshot Compilation_[/*spam*/].wmv
Формат : Windows Media
Размер файла : 333 Мбайт
Продолжительность : 14 м.
Режим общего битрейта : Постоянный
Общий поток : 3154 Кбит/сек
Максимальный общий битрейт : 5738 Кбит/сек
Дата кодирования : UTC 2016-10-31 21:00:26.219
Обложка : Y
Видео
Идентификатор : 2
Формат : VC-1
Профиль формата : [email protected]/*  */
Идентификатор кодека : WMV3
Идентификатор кодека/Информация : Windows Media Video 9
Идентификатор кодека/Подсказка : WMV3
Описание кодека : Windows Media Video 9 - Professional
Продолжительность : 14 м.
Вид битрейта : Постоянный
Битрейт : 5500 Кбит/сек
Ширина : 854 пикселя
Высота : 480 пикселей
Соотношение сторон : 16:9
Частота кадров : 29,970 кадров/сек
Цветовое пространство : YUV
Субдискретизация насыщенности : 4:2:0
Битовая глубина : 8 бит
Тип развёртки : Прогрессивная
Метод сжатия : С потерями
Бит/(Пиксели*Кадры) : 0.448
Размер потока : 580 Мбайт
Язык : English (US)
Аудио
Идентификатор : 1
Формат : WMA
Версия формата : Version 2
Идентификатор кодека : 161
Идентификатор кодека/Информация : Windows Media Audio
Описание кодека : Windows Media Audio 9.2 - 192 kbps, 48 kHz, stereo (A/V) 1-pass CBR
Продолжительность : 14 м.
Вид битрейта : Постоянный
Битрейт : 192 Кбит/сек
Каналы : 2 канала
Частота : 48,0 КГц
Битовая глубина : 16 бит
Размер потока : 20,3 Мбайт (6%)
Язык : English (US)

Скринлист

Скриншоты

                             

_________________
Вне форума [Профиль] [ЛС]
Похожие темы
Форум Тема Автор Торрент Отв. Посл. сообщение
./templates/default/images/folder_dl.gif Авторская песня VA - Лучшие Русские романсы разных лет (2013) [MP3|192 кб/с] UndegraundMen
1 | 0

0 | 1163

4

2013-06-19 03:01
UndegraundMen Последнее
./templates/default/images/folder_dl.gif Авторская песня VA - 100 лучших русских романсов (2009) [MP3|256 кб/с] UndegraundMen
1 | 0

0 | 1195

11

2013-08-08 23:00
UndegraundMen Последнее
./templates/default/images/folder_dl.gif Pop VA - Лучшее для лучших. Продолжение (2014) [MP3|192-320 кб/с]<Pop, Dance> sashau
0 | 1

0 | 1019

13

2014-12-12 19:46
sashau Последнее
./templates/default/images/folder_dl.gif Pop VA - Хит топ Самые новые и лучшие (2015) [MP3|128-320 кб/с]<Pop> Aikivas
1 | 0

1 | 1391

15

2015-09-21 19:51
Dracula Последнее
./templates/default/images/folder_dl.gif T Фильмы 2011-2016 Самый лучший день / Samyy luchshiy den! (Жора Крыжовников) [2015 г., комедия, музыка, WEB-DL 720p] Region_13
1 | 0

2 | 2080

93

2016-01-25 18:35
Region_13 Последнее
./templates/default/images/folder_dl.gif Бизнес, Право, Экономика, Финансы Книжная серия | Практика лучших бизнес-тренеров России [10 книг] (2017) [FB2] XP1971
1 | 0

0 | 7887

16

2017-04-14 08:31
XP1971 Последнее
./templates/default/images/folder_dl.gif Разное Мартин Доэрти | Самооборона. Навыки рукопашного боя от лучших спецслужб (2017) [DJVU] }{@R0N
1 | 0

0 | 4015

3

2017-05-10 16:17
}{@R0N Последнее
./templates/default/images/folder_dl.gif Программы Лучшие рецепты мира v3.0.17 AD-Free [Ru] - Более 5000 самых интересных блюд мира XP1971
1 | 0

0 | 12267

3

2017-06-02 23:34
XP1971 Последнее
./templates/default/images/folder_dl.gif Медицина и Здоровье Дж. А. Родейл | Как улучшить зрение. Естественные способы лечения (2005) [FB2, EPUB] XP1971
1 | 0

0 | 13448

3

2017-08-17 20:32
XP1971 Последнее
./templates/default/images/folder_dl.gif Медицина и Здоровье Марина Ильинская | Очки-костыли. Почему очки опасны и как улучшить зрение, не пользуясь оптикой (2017) [FB2] moralis
4 | 0

0 | 5471

13

2017-09-28 10:50
moralis Последнее
Показать сообщения:    
Ответить на тему

Текущее время: Сегодня 18:19

Часовой пояс: GMT + 3



Вы не можете начинать темы
Вы не можете отвечать на сообщения
Вы не можете редактировать свои сообщения
Вы не можете удалять свои сообщения
Вы не можете голосовать в опросах
Вы не можете прикреплять файлы к сообщениям
Вы не можете скачивать файлы