Сегодня идет свободное скачивание без начисления Download

Лучшие восемнадцатилетние сосочки / Cumshot Compilation (18OnlyGirls / AllFineGirls) [2016 г., Anal Creampie, Compilation, CumShot, SiteRip] (Unknown actress)

Ответить на тему
 
Автор
Сообщение

XP1971 ®

Пол:

Стаж: 4 года 9 месяцев

Сообщений: 5311

Торрент-статистика

Пост 09-Ноя-2016 11:41

[Цитировать]

-Лучшие
восемнадцатилетние
сосочки
-- --Cumshot Compilation
-Страна: USA
Режиссер: N/A
Год выпуска: 2016 г.
Перевод: Отсутствует
Продолжительность: 00:14:45
Студия: 18OnlyGirls / AllFineGirls
Оригинальный аудиопоток: английский
Жанр: Anal Creampie, Compilation, CumShot-В ролях:
Unknown actress-Оригинальное описание:
They are numerous and each of them in these moments, in a fit
of passion swept them quite interesting. Watch death in general.-Описание на русском:
Их действительно много и каждая из них в такие моменты в
порыве захлестнувшей их страсти довольно-таки интересна.
В общем, смотрим разнообразное кончалово .-
Контейнер: WMV
Видео кодек: VC-1
Cубтитры: отсутствуют
Качество видео: SiteRip
Аудио кодек: Windows Media
Аудио: WMAudio | 48.0 KHz | 2 ch | 192.0 Kbps
Видео: WMV3 | 854х480 | 5500 Кbps | 29.97 fps | 0.448 bit/pixel

Media Info

Код:
Общее
Полное имя : Cumshot Compilation_[/*spam*/].wmv
Формат : Windows Media
Размер файла : 333 Мбайт
Продолжительность : 14 м.
Режим общего битрейта : Постоянный
Общий поток : 3154 Кбит/сек
Максимальный общий битрейт : 5738 Кбит/сек
Дата кодирования : UTC 2016-10-31 21:00:26.219
Обложка : Y
Видео
Идентификатор : 2
Формат : VC-1
Профиль формата : [email protected]/*  */
Идентификатор кодека : WMV3
Идентификатор кодека/Информация : Windows Media Video 9
Идентификатор кодека/Подсказка : WMV3
Описание кодека : Windows Media Video 9 - Professional
Продолжительность : 14 м.
Вид битрейта : Постоянный
Битрейт : 5500 Кбит/сек
Ширина : 854 пикселя
Высота : 480 пикселей
Соотношение сторон : 16:9
Частота кадров : 29,970 кадров/сек
Цветовое пространство : YUV
Субдискретизация насыщенности : 4:2:0
Битовая глубина : 8 бит
Тип развёртки : Прогрессивная
Метод сжатия : С потерями
Бит/(Пиксели*Кадры) : 0.448
Размер потока : 580 Мбайт
Язык : English (US)
Аудио
Идентификатор : 1
Формат : WMA
Версия формата : Version 2
Идентификатор кодека : 161
Идентификатор кодека/Информация : Windows Media Audio
Описание кодека : Windows Media Audio 9.2 - 192 kbps, 48 kHz, stereo (A/V) 1-pass CBR
Продолжительность : 14 м.
Вид битрейта : Постоянный
Битрейт : 192 Кбит/сек
Каналы : 2 канала
Частота : 48,0 КГц
Битовая глубина : 16 бит
Размер потока : 20,3 Мбайт (6%)
Язык : English (US)

Скринлист

Скриншоты

                             

_________________
Вне форума [Профиль] [ЛС]
Похожие темы
Форум Тема Автор Торрент Отв. Посл. сообщение
./templates/default/images/folder_dl.gif Обучающее видео [HighLoad] HighLoad++ Лучшие материалы [2015, RUS] Omen
4 | 0

0 | 685

13

2015-03-27 00:00
Omen Последнее
./templates/default/images/folder_dl.gif Обучающее видео [O\'Reilly Media / Infinite Skills] Будь ЛУЧШИМ плохим выступающим, обучающее видео / Be the BEST Bad Presenter Ever Training Video [2015, выступление перед публикой, HDRip, ENG] (Видеоурок) Omen
2 | 0

0 | 332

2

2015-12-29 09:00
Omen Последнее
./templates/default/images/folder_dl.gif Справочники, энциклопедии и словари Александр Долгих | Секреты автоподбора, или Как выбрать лучший на рынке подержанный автомобиль (2017) [PDF, FB2, RTF, EPUB, MOBI] }{@R0N
1 | 0

0 | 1754

1

2017-07-10 16:41
}{@R0N Последнее
Показать сообщения:    
Ответить на тему

Текущее время: Сегодня 06:14

Часовой пояс: GMT + 3



Вы не можете начинать темы
Вы не можете отвечать на сообщения
Вы не можете редактировать свои сообщения
Вы не можете удалять свои сообщения
Вы не можете голосовать в опросах
Вы не можете прикреплять файлы к сообщениям
Вы не можете скачивать файлы