Сегодня идет свободное скачивание без начисления Download

Убери свою комнату / Clean Your Room ( TeensLoveHugeCocks / RealityKings) [2016 г., Black Hair, 69, Blowjob, Pussy Licking, Doggystyle, Hotpants, Glasses, Teen (18-19), Facial, Shaved, Short (Petite), Straight, SiteRip]

Ответить на тему
 
Автор
Сообщение

XP1971 ®

Пол:

Стаж: 4 года 11 месяцев

Сообщений: 5737

Торрент-статистика

Пост 09-Ноя-2016 11:27

[Цитировать]

-Убери свою комнату / Clean Your Room -- Страна: USA
Режиссер: N/A
Год выпуска: 2016 г.
Перевод: Отсутствует
Продолжительность: 00:47:55
Оригинальный аудиопоток: английский
Студия: TeensLoveHugeCocks / RealityKings
Жанр: Black Hair, 69, Blowjob, Pussy Licking, Doggystyle, Hotpants, Glasses, Teen (18-19), Facial, Shaved, Short (Petite), Straight-В ролях:
Megan Rain-Оригинальное описание:
Dirty mother teaches her slut daughter, telling her to get her out finally in his room.-Описание на русском:
Неопрятная мать наставляет свою неряху дочь, говоря ей, чтобы она убралась наконец-то в своей комнате. Взрослеющая дрянь сидит на диване в трусах и корчит рожи, слушая в наушниках с айфончика какую-то попсу голимую. Мать уходит в магаз за хлебом, а в это время какой-то лысый чёрт заходит в комнату дочки и начинает занюхивать её грязные трусы. Весь зарывшись в девичьи грязные труханы и выставив наружу вставший хер вздремнул принц. Тут в комнату свою заходит дочь и среди груды своего грязного белья видит настоящий член. Ох ах, что за чудо, лизнула - на вкус совсем не гриб шиитаки, а настоящий хер. Ну тут значит из кучи грязных трусов выныривает этот лысый принц и в рот девке вставляет свой розовый микрофон. То дасё да трали-вали, шоркал он девку, крутил/вертел да и кончил он ей на губу - а сзади в дверях стоит вернувшаяся мать, твоюжмать - схватила свою дочь Меган за космы и утащила её губы отмывать. А лысый посидел, погрустил, ещё трули девкины понюхал да пошёл по своим делам. Кто был этот лысый - загадка. Как так можно засраться, что на кровати у этой девки такая огромная куча трусов - загадка. Если на кровати у девки столько грязных трусов, то как она проветривала комнату и где вообще спала - ещё одна загадка. Вот такой загадочный нынче вышел свеженький, ноябрьский ролик.-
Контейнер: MP4
Аудио кодек: AAC
Видео кодек: AVC
Cубтитры: отсутствуют
Качество видео: SiteRip
Аудио: Advanced Audio | 32.0 KHz | 1 ch | 32.0 Kbps
Видео: AVC | 768x432 | 1500 Кbps | 29.97 fps | 0.151 bit/pixel

Media Info

Общее
Полное имя : Clean Your Room_ (Megan Rain - 05.11.2016)_[/*spam*/].mp4
Формат : MPEG-4
Профиль формата : Base Media / Version 2
Идентификатор кодека : mp42
Размер файла : 528 Мбайт
Продолжительность : 47 м.
Режим общего битрейта : Переменный
Общий поток : 1540 Кбит/сек
Дата кодирования : UTC 2016-11-04 22:29:54
Дата пометки : UTC 2016-11-04 22:29:54
Библиотека кодирования : Apple QuickTime
Видео
Идентификатор : 1
Формат : AVC
Формат/Информация : Advanced Video Codec
Профиль формата : [email protected]/* */
Параметр CABAC формата : Нет
Параметр ReFrames формата : 6 кадров
Идентификатор кодека : avc1
Идентификатор кодека/Информация : Advanced Video Coding
Продолжительность : 47 м.
Продолжительность оригинала : 47 м.
Вид битрейта : Переменный
Битрейт : 1500 Кбит/сек
Ширина : 768 пикселей
Высота : 432 пикселя
Соотношение сторон : 16:9
Режим частоты кадров : Постоянный
Частота кадров : 29,970 кадров/сек
Стандарт вещания : Component
Цветовое пространство : YUV
Субдискретизация насыщенности : 4:2:0
Битовая глубина : 8 бит
Тип развёртки : Прогрессивная
Бит/(Пиксели*Кадры) : 0.151
Размер потока : 515 Мбайт (98%)
Размер потока оригинала : 515 Мбайт (98%)
Дата кодирования : UTC 2016-11-04 22:29:54
Дата пометки : UTC 2016-11-03 22:30:15
Цветовой диапазон : Limited
Аудио
Идентификатор : 2
Формат : AAC
Формат/Информация : Advanced Audio Codec
Профиль формата : LC
Идентификатор кодека : 40
Продолжительность : 47 м.
Вид битрейта : Переменный
Битрейт : 32,0 Кбит/сек
Максимальный битрейт : 34,7 Кбит/сек
Каналы : 1 канал
Расположение каналов : Front: C
Частота : 32,0 КГц
Метод сжатия : С потерями
Размер потока : 11,0 Мбайт (2%)
Дата кодирования : UTC 2016-11-04 22:29:54
Дата пометки : UTC 2016-11-03 22:30:15

Скринлист

Скриншоты

                                                                       

_________________
Вне форума [Профиль] [ЛС]
Похожие темы
Форум Тема Автор Торрент Отв. Посл. сообщение
./templates/default/images/folder_dl.gif Психология, Тренинг, Саморазвитие Айше Берсел | Жизнь как конструктор. Выдели главное, убери лишнее и создай жизнь, которая тебя вдохновляет (2016) [PDF] }{@R0N
1 | 0

0 | 562

3

2017-02-16 19:36
}{@R0N Последнее
Показать сообщения:    
Ответить на тему

Текущее время: Сегодня 07:38

Часовой пояс: GMT + 3



Вы не можете начинать темы
Вы не можете отвечать на сообщения
Вы не можете редактировать свои сообщения
Вы не можете удалять свои сообщения
Вы не можете голосовать в опросах
Вы не можете прикреплять файлы к сообщениям
Вы не можете скачивать файлы