Сегодня идет свободное скачивание без начисления Download

Сверхъестественное / Supernatural / Сезон: 7 / Серии: 1-2 из 23 (23) (Роберт Сингер, Филип Сгриккиа, Ким Мэннерс и др.) [2011, США, Мистика, Ужасы, Триллер, Фэнтези, Драма, Детектив, BDRip 720p] Dub ([Кравец-Рекордз от т/к Пятница])

Ответить на тему
 
Автор
Сообщение

Omen ®

Стаж: 6 лет 1 месяц

Сообщений: 184308

Торрент-статистика

Пост 09-Ноя-2016 01:00

[Цитировать]

Сверхъестественное / Supernatural / Сезон 7: Серии 1-2 из 23
Год выпуска: 2011-2012
Страна: США
Жанр: Мистика, Ужасы, Триллер, Фэнтези, Драма, Детектив
Продолжительность: 42:00-43:00
Перевод: Профессиональный (дублированный) [[Кравец-Рекордз от т/к Пятница]]
Режиссёр: Роберт Сингер, Филип Сгриккиа, Ким Мэннерс и др.
В ролях: Джаред Падалеки / Jared Padalecki (Сэм Винчестер), Дженсен Эклс / Jensen Ackles (Дин Винчестер), Джим Бивер / Jim Beaver (Бобби Сингер), Миша Коллинз / Misha Collins (Кастиэль), Марк Шеппард / Mark Sheppard (Кроули) и др.
Описание: Сериал рассказывает о приключениях братьев Сэма и Дина Винчестеров, которые путешествуют по Соединённым Штатам на чёрном автомобиле Chevrolet Impala 1967 года, расследуют паранормальные явления, многие из которых основаны на американских городских легендах и фольклоре, и сражаются с порождениями зла, такими как демоны и призраки.

Сэмпл: http://multi-up.com/1126173
Качество: BDRip 720p
Контейнер: MKV
Видео: H.264, High@L4.1, 1280x720, 23.976 fps, crf=16, 6000-8000 Kbps avg, 0.320 bit / pixel
Аудио: 48 kHz, AC3, 2 (L,R) ch, ~192.00 kbps avg Профессиональный (полное дублирование) [[Кравец-Рекордз от т/к Пятница]]
Субтитры: нет

Список серий

1. Встречайте Нового Босса ("Meet the New Boss")
2. Привет, Жестокий Мир ("Hello, Cruel World")

MediaInfo

Общее
Уникальный идентификатор : 180379725080714006206343535615649034831 (0x87B3DF135EFBBDB292D49C4736ACB24F)
Полное имя : D:\Supernatural.S07.720p.BDRip.Dub\Supernatural.S07E01.BDRip.720p.Dub.mkv
Формат : Matroska
Версия формата : Version 4 / Version 2
Размер файла : 2,19 Гбайт
Продолжительность : 42 м. 20 с.
Общий поток : 7399 Кбит/сек
Название фильма : Supernatural 7x01 - Meet the New Boss - Release by Stiles (RG SerialS)
Дата кодирования : UTC 2016-11-07 22:47:11
Программа кодирования : mkvmerge v7.9.0 ('Birds') 64bit
Библиотека кодирования : libebml v1.3.1 + libmatroska v1.4.2
Обложка : Yes
Attachments : cover.jpg
Видео
Идентификатор : 1
Формат : AVC
Формат/Информация : Advanced Video Codec
Профиль формата : High@L4.1
Параметр CABAC формата : Да
Параметр ReFrames формата : 5 кадров
Идентификатор кодека : V_MPEG4/ISO/AVC
Продолжительность : 42 м. 19 с.
Битрейт : 7207 Кбит/сек
Ширина : 1280 пикселей
Высота : 720 пикселей
Соотношение сторон : 16:9
Режим частоты кадров : Постоянный
Частота кадров : 23,976 (24000/1001) кадра/сек
Цветовое пространство : YUV
Субдискретизация насыщенности : 4:2:0
Битовая глубина : 8 бит
Тип развёртки : Прогрессивная
Бит/(Пиксели*Кадры) : 0.326
Размер потока : 2,13 Гбайт (97%)
Заголовок : 7.01 Встречайте Нового Босса (англ "Meet the New Boss")
Библиотека кодирования : x264 core 144 r2525 40bb568
Настройки программы : cabac=1 / ref=5 / deblock=1:-3:-3 / analyse=0x3:0x133 / me=umh / subme=10 / psy=1 / psy_rd=1.00:0.00 / mixed_ref=1 / me_range=24 / chroma_me=1 / trellis=2 / 8x8dct=1 / cqm=0 / deadzone=21,11 / fast_pskip=0 / chroma_qp_offset=-2 / threads=6 / lookahead_threads=1 / sliced_threads=0 / nr=0 / decimate=1 / interlaced=0 / bluray_compat=0 / constrained_intra=0 / bframes=6 / b_pyramid=2 / b_adapt=2 / b_bias=0 / direct=3 / weightb=1 / open_gop=0 / weightp=2 / keyint=240 / keyint_min=23 / scenecut=40 / intra_refresh=0 / rc_lookahead=60 / rc=crf / mbtree=1 / crf=16.0 / qcomp=0.70 / qpmin=0 / qpmax=69 / qpstep=4 / vbv_maxrate=62500 / vbv_bufsize=78125 / crf_max=0.0 / nal_hrd=none / filler=0 / ip_ratio=1.40 / aq=1:0.95
Язык : English
Default : Да
Forced : Нет
Аудио
Идентификатор : 2
Формат : AC-3
Формат/Информация : Audio Coding 3
Расширение режима : CM (complete main)
Параметр Endianness формата : Big
Идентификатор кодека : A_AC3
Продолжительность : 42 м. 20 с.
Вид битрейта : Постоянный
Битрейт : 192 Кбит/сек
Каналы : 2 канала
Расположение каналов : Front: L R
Частота : 48,0 КГц
Частота кадров : 31,250 кадров/сек (1536 spf)
Битовая глубина : 16 бит
Метод сжатия : С потерями
Размер потока : 58,1 Мбайт (3%)
Заголовок : т/к Пятница
Язык : Russian
Default : Нет
Forced : Нет

Скриншоты








Вне форума [Профиль] [ЛС]
Показать сообщения:    
Ответить на тему

Текущее время: Сегодня 18:39

Часовой пояс: GMT + 3



Вы не можете начинать темы
Вы не можете отвечать на сообщения
Вы не можете редактировать свои сообщения
Вы не можете удалять свои сообщения
Вы не можете голосовать в опросах
Вы не можете прикреплять файлы к сообщениям
Вы не можете скачивать файлы