Сегодня идет свободное скачивание без начисления Download

Анатомия страсти / Анатомия Грей / Grey\'s Anatomy / Сезон: 13 / Серии: 1-5 из 18 (Роб Корн / Rob Corn) [2016, США, драма, мелодрама, WEB-DL 720p] MVO (Fox Life) + Original

Ответить на тему
 
Автор
Сообщение

Omen ®

Стаж: 5 лет 6 месяцев

Сообщений: 186946

Торрент-статистика

Пост 08-Ноя-2016 01:00

[Цитировать]

Анатомия страсти / Анатомия Грей / Grey's Anatomy- Год выпуска: 2016
Страна: США
Жанр: Драма, мелодрама
Продолжительность: ~ 00:40:00
Перевод: Профессиональный многоголосый закадровый, Fox Life-Режиссёр: Роб Корн
В ролях: Эллен Помпео, Сандра О, Джастин Чэмберс, Патрик Дэмпси, Сара Рамирез, Джеймс Пикенс мл., Чэндра Уилсон, Кевин МакКидд, Джессика Кэпшоу-Описание: Анатомия страсти – это захватывающий своим сюжетом, драматичностью и не ординарностью сериал. В фильме описывается жизнь молодых хирургов, которые посвящают свою жизнь работе в клинике, операциям и пациентам. Но так же не забывают про личную жизнь, которую они с лёгкостью устраивают на рабочем месте. Сериал показывает повседневную жизнь простых врачей, их проблемы, разочарования, неудачи и то, как друзья помогают справиться с навалившимися трудностями на работе и в личной жизни. Каждая серия - это история наполненная интересными открытиями в хирургии, жизненными историями взаимопониманием между коллегами.- -Релиз от:
Запись звука: Bartikus, SerGV
Сведение звука: SerGV--Качество: WEB-DL 720p
Формат: MKV
Видео кодек: MPEG-4 AVC
Аудио кодек: AC3
Видео: 1280x720 at 25.000 fps, MPEG-4 AVC, ~4 164 kbps avg, 0.181 bit/pixel
Аудио #1: Russian: 48 kHz, AC3 Dolby Digital, 2/0 (L,R) ch, ~192 kbps avg |Многоголосый закадровый, Fox Life|
Аудио #2: English: 48 kHz, AC3, 3/2 (L,C,R,l,r) + LFE ch, ~384.00 kbps avg
Субтитры: English-

MediaInfo

General
Unique ID : 254021121476891009347914366712992721605 (0xBF1AB03D5615C2578AF9AAE0058B6AC5)
Complete name : D:\Fox Life\Greys Anatomy\Greys.Anatomy.S13.720p.WEB-DL.Rus.Eng.CasStudio\Greys.Anatomy.S13E01.720p.WEB-DL.Rus.Eng.CasStudio.mkv
Format : Matroska
Format version : Version 2
File size : 1.39 GiB
Duration : 41 min 16 s
Overall bit rate : 4 836 kb/s
Movie name : Greys Anatomy (2016) 13x01 - Release by SerGV for CasStudio
Encoded date : UTC 2016-10-28 13:57:59
Writing application : mkvmerge v4.2.0 ('No Talking') сборка от Jul 28 2010 18:38:23
Writing library : libebml v1.0.0 + libmatroska v1.0.0
Cover : Yes
Attachments : cover.jpg
Video
ID : 1
Format : AVC
Format/Info : Advanced Video Codec
Format profile : High@L3.1
Format settings, CABAC : No
Format settings, ReFrames : 2 frames
Muxing mode : Header stripping
Codec ID : V_MPEG4/ISO/AVC
Duration : 41 min 16 s
Bit rate : 4 164 kb/s
Width : 1 280 pixels
Height : 720 pixels
Display aspect ratio : 16:9
Frame rate mode : Constant
Frame rate : 25.000 FPS
Color space : YUV
Chroma subsampling : 4:2:0
Bit depth : 8 bits
Scan type : Progressive
Bits/(Pixel*Frame) : 0.181
Stream size : 1.20 GiB (86%)
Title : Greys Anatomy 13x01: Undo - Release by SerGV for CasStudio
Language : English
Default : Yes
Forced : No
Color range : Limited
Color primaries : BT.709
Transfer characteristics : BT.709
Matrix coefficients : BT.709
Audio #1
ID : 2
Format : AC-3
Format/Info : Audio Coding 3
Mode extension : CM (complete main)
Format settings, Endianness : Big
Muxing mode : Header stripping
Codec ID : A_AC3
Duration : 41 min 16 s
Bit rate mode : Constant
Bit rate : 192 kb/s
Channel(s) : 2 channels
Channel positions : Front: L R
Sampling rate : 48.0 kHz
Frame rate : 31.250 FPS (1536 spf)
Compression mode : Lossy
Stream size : 56.7 MiB (4%)
Title : DD 2.0 @ 192 kbps - Многоголосый закадровый, Fox Life
Language : Russian
Default : Yes
Forced : No
Audio #2
ID : 3
Format : AC-3
Format/Info : Audio Coding 3
Mode extension : CM (complete main)
Format settings, Endianness : Big
Muxing mode : Header stripping
Codec ID : A_AC3
Duration : 41 min 16 s
Bit rate mode : Constant
Bit rate : 384 kb/s
Channel(s) : 6 channels
Channel positions : Front: L C R, Side: L R, LFE
Sampling rate : 48.0 kHz
Frame rate : 31.250 FPS (1536 spf)
Compression mode : Lossy
Stream size : 113 MiB (8%)
Title : DD 5.1 @ 384 kbps - Original
Language : English
Default : No
Forced : No
Text
ID : 4
Format : UTF-8
Codec ID : S_TEXT/UTF8
Codec ID/Info : UTF-8 Plain Text
Language : English
Default : No
Forced : No

Скриншоты

Раздача ведется путем добавления новых серий

Когда раздача ведётся путём добавления новых серий, при каждом добавлении создётся новый торрент. Чтобы начать докачку новой серии, пользователям необходимо сделать следующее:
1. остановить скачивание,
2. удалить старый торрент у себя из клиента (старые серии удалять не надо),
3. скачать новый торрент и запустить его у себя в клиенте вместо старого, при этом указать клиенту путь в старую папку, куда и должно происходить скачивание новых серий.
Ваш клиент при этом должен произвести хеширование (проверку) старой папки (если не производит сам - помогите ему сделать это), и будет докачивать только те серии, которых у вас ещё нет. Старые серии при этом не удаляются, а продолжают раздаваться!
Eсли вы уже удалили старые серии, то предотвратить повторную закачку старых серий можно, отжав галочку в соответсвующих местах при запуске нового торрента. По возможности, желательно не удалять старые серии как можно дольше, чтобы релизёр не столько продолжал раздавать старые серии, а смог сконцентрироваться на новых.
Вне форума [Профиль] [ЛС]
Показать сообщения:    
Ответить на тему

Текущее время: Сегодня 02:00

Часовой пояс: GMT + 3



Вы не можете начинать темы
Вы не можете отвечать на сообщения
Вы не можете редактировать свои сообщения
Вы не можете удалять свои сообщения
Вы не можете голосовать в опросах
Вы не можете прикреплять файлы к сообщениям
Вы не можете скачивать файлы