Сегодня идет свободное скачивание без начисления Download

Сверхъестественное / Supernatural / Сезон: 7 / Серии: 1-3 (23) из 23 (Филип Сгриккиа, Роберт Сингер, Ким Мэннерс) [2011, США, Ужасы, Фэнтези, Триллер, Драма, Детектив, WEB-DL 720p] Dub (Кравец-Рекордз от ТК Пятница)

Ответить на тему
 
Автор
Сообщение

Omen ®

Стаж: 5 лет 7 месяцев

Сообщений: 185427

Торрент-статистика

Пост 07-Ноя-2016 01:00

[Цитировать]

Сверхъестественное / Supernatural / Сезон 7: Серии 1-8 из 23
Год выпуска: 2011-2012
Страна: США
Жанр: Ужасы, Фэнтези, Триллер, Драма, Детектив
Продолжительность: 43:00
Перевод: Профессиональный (дублированный) Кравец-Рекордз от ТК Пятница
Режиссёр: Филип Сгриккиа, Роберт Сингер, Ким Мэннерс
В ролях: Джаред Падалеки, Дженсен Эклс, Миша Коллинз, Ди Джей Куоллс, Джим Бивер, Джеймс Патрик Стюарт, Марк Пеллегрино, Марк Шеппард и др.
Описание: Сериал рассказывает о приключениях братьев Сэма и Дина Винчестеров, которые путешествуют по Соединённым Штатам на чёрном автомобиле Chevrolet Impala 1967 года, расследуют паранормальные явления, многие из которых основаны на американских городских легендах и фольклоре, и сражаются с порождениями зла, такими как демоны и призраки. Но в этом сезоне им встречаются не только они, но и новые, а точнее Левиафаны.
Доп. информация: Торрент файл перезалит, заменен видеоряд на релиз от HDCLUB, (((ДОБАВЛЕНА 8 СЕРИЯ)))
Сэмпл: https://www.sendspace.com/file/zq9hlj
Качество: WEB-DLRip 720p
Контейнер: MKV
Видео: MPEG4-AVC, x264, High@L3.1, 1280x720, (16:9), 4000-4500 kbps, 23,976 fps
Аудио: Профессиональный (дублированный) Кравец-Рекордз от ТК Пятница, MP3, 2ch, 256 kbps
Субтитры: нет
Реклама:
ЧИСТЫЙ РЕЛИЗ, НИКАКОЙ РЕКЛАМЫ!!!

Список серий

01. Встречайте нового босса
02. Привет, жестокий мир!
03. Простая девчонка
04. Защищая свою жизнь
05. Милые бранятся - только тешатся

MediaInfo

Общее
Уникальный идентификатор : 236572954627198053383619403424182578900 (0xB1FA4B3235554F0585A41DE1B2CC2ED4)
Полное имя : D:\Сверхъестественное (Supernatural) 7 Сезон WEB-DLRip 720р DUB (Кравец-Рекордз) от ТК Пятница\Supernatural.S07E01.rus.720p.DUB.mkv
Формат : Matroska
Версия формата : Version 4 / Version 2
Размер файла : 1,28 Гбайт
Продолжительность : 42 м. 42 с.
Общий поток : 4299 Кбит/сек
Дата кодирования : UTC 2016-11-06 12:10:54
Программа кодирования : mkvmerge v8.3.0 ('Over the Horizon') 64bit
Библиотека кодирования : libebml v1.3.1 + libmatroska v1.4.2
Видео
Идентификатор : 1
Формат : AVC
Формат/Информация : Advanced Video Codec
Профиль формата : High@L3.1
Параметр CABAC формата : Да
Параметр ReFrames формата : 4 кадра
Идентификатор кодека : V_MPEG4/ISO/AVC
Продолжительность : 42 м. 42 с.
Битрейт : 3901 Кбит/сек
Ширина : 1280 пикселей
Высота : 720 пикселей
Соотношение сторон : 16:9
Режим частоты кадров : Постоянный
Частота кадров : 23,976 (24000/1001) кадра/сек
Частота кадров в оригинале : 23,976 (23976/1000) кадра/сек
Цветовое пространство : YUV
Субдискретизация насыщенности : 4:2:0
Битовая глубина : 8 бит
Тип развёртки : Прогрессивная
Бит/(Пиксели*Кадры) : 0.183
Размер потока : 1,21 Гбайт (94%)
Библиотека кодирования : x264 core 112 r1834 a51816a
Настройки программы : cabac=1 / ref=1 / deblock=1:0:0 / analyse=0x3:0x113 / me=hex / subme=7 / psy=1 / psy_rd=1.00:0.00 / mixed_ref=0 / me_range=16 / chroma_me=1 / trellis=1 / 8x8dct=1 / cqm=0 / deadzone=21,11 / fast_pskip=1 / chroma_qp_offset=-2 / threads=24 / sliced_threads=0 / nr=0 / decimate=1 / interlaced=0 / constrained_intra=0 / bframes=3 / b_pyramid=2 / b_adapt=1 / b_bias=0 / direct=1 / weightb=1 / open_gop=0 / weightp=2 / keyint=250 / keyint_min=25 / scenecut=40 / intra_refresh=0 / rc_lookahead=40 / rc=2pass / mbtree=1 / bitrate=4041 / ratetol=1.0 / qcomp=0.60 / qpmin=0 / qpmax=51 / qpstep=4 / cplxblur=20.0 / qblur=0.5 / ip_ratio=1.40 / aq=1:1.00
Default : Да
Forced : Нет
Аудио
Идентификатор : 2
Формат : MPEG Audio
Версия формата : Version 1
Профиль формата : Layer 3
Режим : Joint stereo
Идентификатор кодека : A_MPEG/L3
Идентификатор кодека/Подсказка : MP3
Продолжительность : 42 м. 42 с.
Вид битрейта : Постоянный
Битрейт : 256 Кбит/сек
Каналы : 2 канала
Частота : 48,0 КГц
Частота кадров : 41,667 кадра/сек (1152 spf)
Метод сжатия : С потерями
Размер потока : 78,2 Мбайт (6%)
Default : Да
Forced : Нет
Вне форума [Профиль] [ЛС]
Показать сообщения:    
Ответить на тему

Текущее время: Сегодня 16:18

Часовой пояс: GMT + 3



Вы не можете начинать темы
Вы не можете отвечать на сообщения
Вы не можете редактировать свои сообщения
Вы не можете удалять свои сообщения
Вы не можете голосовать в опросах
Вы не можете прикреплять файлы к сообщениям
Вы не можете скачивать файлы