Сегодня идет свободное скачивание без начисления Download

Игра престолов / Game of Thrones / Сезон: 2 / Серии: 1-10 из 10 (Томас МакКарти, Брайан Кирк) [2012, США, Фэнтези, драма, приключения, экранизация, BDRip 1080p] 3xMVO (AlexFilm,LostFilm,FOXlife) + Dub (РЕН) + Original + Subs (Rus, Eng)

Ответить на тему
 
Автор
Сообщение

Omen ®

Стаж: 5 лет 7 месяцев

Сообщений: 185427

Торрент-статистика

Пост 06-Ноя-2016 01:00

[Цитировать]

-Игра престолов / Game of Thrones
- -Год выпуска: 2012.
Страна: США.
Жанр: фентези, драма, эпик.
Продолжительность: ~00:56:00--Перевод:
  • Профессиональный (многоголосый закадровый) AlexFilm.
  • Профессиональный (многоголосый закадровый) LostFilm.
  • Профессиональный (многоголосый закадровый) FOXlife.
  • Дубляж «РЕН-ТВ».-Субтитры:
  • русские форсированные (на надписи и английские диалоги)
  • русские полные (DeadMan и 7Kingdoms)
  • английские форсированные
  • английские полные
    Режиссёр: Алан Тейлор, Брайан Кирк, Даниэль Минахан и др.-В ролях: Николай Костер-Вальдау, Лина Хиди, Айэйн Глен, Питер Динклэйдж, Эмилия Кларк, Мишель Фэйрли, Эйден Гиллен, Кит Харингтон, Марк Эдди и др.-Описание:
    К концу подходит время благоденствия, и лето, длившееся несколько десятилетий, угасает. Вокруг средоточия власти Семи королевств, Железного трона, зреет заговор, и в это непростое время король решает искать поддержки у друга юности Эддарда Старка. В мире, где все — от короля до наемника — рвутся к власти, плетут интриги и готовы вонзить нож в спину, есть место и благородству, состраданию и любви. Между тем, никто не замечает пробуждение тьмы из легенд далеко на Севере — и лишь Стена защищает живых к югу от нее.
    «Winter Is Coming / Зима Близко»-Доп. Информация:
    Релиз от
    by sergiy_psp.
    Цитата:
Цитата:
  • Рипы от DON!
  • Русская дорожка #2 получена наложением чистого голоса на центр декодированного DTS-HD MA.
  • Русские дорожки #1 и #3,4 получены путём наложения выделенных голосов на центр декодированного DTS-HD MA.
  • В переводе, выполненном для канала FoxLife, имеется множество откровенно-глупых ляпов, но дорога все равно имеет право на существование.
  • Сохранены оригинальные чаптеры как на Blu-Ray.
  • Экранный текст переведён форсированными субтитрами. Русские субтитры подготовлены и стилизованы автором оригинальной раздачи.
  • Всю работу по созданию аудиодорожек и субтитров выполнил sergiy_psp, все спасибы и почести по праву принадлежат ему.
--Качество: BDRip 1080p
Контейнер: MKV-Видео: 1920x1080 at 23.976 fps, x264@L4.1, ~10500 kbps avg.
Источник: Game of Thrones S01 2011 1080p Blu-ray AVC DTS-HD MA 5.1-HDChina.
Аудио#1: Russian: 48 kHz, DTS 5.1, ~640 kbps avg |Дубляж, РЕН ТВ|.
Аудио#2: Russian: 48 kHz, DTS 5.1, ~1536.00 kbps avg |Многоголосый закадровый, AlexFilm |.
Аудио#3: Russian: 48 kHz, DTS 5.1, ~1536.00 kbps avg |Многоголосый закадровый, LostFilm.
Аудио#4: Russian: 48 kHz, DTS 5.1, ~1536.00 kbps avg |Многоголосый закадровый, | FOXlife|.
Аудио#5: English: 48 kHz/24-bit, DTS 5.1, ~1536.00 kbps avg.
Субтитры: Russian (forced)*, Russian (7Kingdoms.ru), Russian (Александр Митраков & Илья Белкин), Russian (Blu-ray EUR), English, English SDH., (*ass, *pgs, *srt).

Список серий

  • 02x01: The North Remembers / Север помнит (1 апреля 2012)
  • 02x02: The Night Lands / Ночные земли (8 апреля 2012)
  • 02x03: What Is Dead May Never Die / То, что мертво, умереть не может (15 апреля 2012)
  • 02x04: Garden of Bones / Сад костей (22 апреля 2012)
  • 02x05: The Ghost of Harrenhal / Призрак Харренхола (29 апреля 2012)
  • 02x06: The Old Gods and the New / Боги старые и новые (6 мая 2012)
  • 02x07: A Man Without Honor / Человек без чести (13 мая 2012)
  • 02x08: The Prince of Winterfell / Принц Винтерфелла (20 мая 2012)
  • 02x09: Blackwater / Черноводная (27 мая 2012)
  • 02x10: Valar Morghulis / Валар Моргулис (3 июня 2012)

MediaInfo

GeneralUnique ID : 222730595386288651249605137367904192091 (0xA7905A318CAACE65A592E5277F62865B)Complete name : ...\Game.Of.Thrones.s02.1080p.BluRay.4xRus.Eng.HDCLUB\Game.of.Thrones.S02E01.1080p.BluRay.4xRus.Eng.HDCLUB.mkvFormat : MatroskaFormat version : Version 4 / Version 2File size : 7.08 GiBDuration : 53mn 11sOverall bit rate : 19.1 MbpsEncoded date : UTC 2014-06-21 02:56:25Writing application : mkvmerge v6.9.1 ('Blue Panther') 32bit built on Apr 18 2014 18:15:44Writing library : libebml v1.3.0 + libmatroska v1.4.1Attachements : cover.png
VideoID : 1Format : AVCFormat/Info : Advanced Video CodecFormat profile : High@L4.1Format settings, CABAC : YesFormat settings, ReFrames : 4 framesCodec ID : V_MPEG4/ISO/AVCDuration : 53mn 11sBit rate : 12.5 MbpsWidth : 1 920 pixelsHeight : 1 080 pixelsDisplay aspect ratio : 16:9Frame rate mode : ConstantFrame rate : 23.976 fpsColor space : YUVChroma subsampling : 4:2:0Bit depth : 8 bitsScan type : ProgressiveBits/(Pixel*Frame) : 0.251Stream size : 4.46 GiB (63%)Writing library : x264 core 125 r2200 999b753Encoding settings : cabac=1 / ref=4 / deblock=1:-3:-3 / analyse=0x3:0x133 / me=umh / subme=11 / psy=1 / psy_rd=1.00:0.00 / mixed_ref=1 / me_range=48 / chroma_me=1 / trellis=2 / 8x8dct=1 / cqm=0 / deadzone=21,11 / fast_pskip=0 / chroma_qp_offset=-2 / threads=9 / lookahead_threads=1 / sliced_threads=0 / nr=0 / decimate=0 / interlaced=0 / bluray_compat=0 / constrained_intra=0 / bframes=12 / b_pyramid=2 / b_adapt=2 / b_bias=0 / direct=3 / weightb=1 / open_gop=0 / weightp=2 / keyint=250 / keyint_min=23 / scenecut=40 / intra_refresh=0 / rc_lookahead=50 / rc=2pass / mbtree=1 / bitrate=12500 / ratetol=1.0 / qcomp=0.70 / qpmin=0 / qpmax=69 / qpstep=4 / cplxblur=20.0 / qblur=0.5 / ip_ratio=1.40 / aq=1:1.00Language : EnglishDefault : YesForced : No
Audio #1ID : 2Format : AC-3Format/Info : Audio Coding 3Mode extension : CM (complete main)Format settings, Endianness : BigCodec ID : A_AC3Duration : 53mn 11sBit rate mode : ConstantBit rate : 640 KbpsChannel(s) : 6 channelsChannel positions : Front: L C R, Side: L R, LFESampling rate : 48.0 KHzCompression mode : LossyStream size : 243 MiB (3%)Title : DD 5.1 @ 640 kbps – Дублированный (REN)Language : RussianDefault : YesForced : No
Audio #2ID : 3Format : DTSFormat/Info : Digital Theater SystemsMode : 16Format settings, Endianness : BigCodec ID : A_DTSDuration : 53mn 11sBit rate mode : ConstantBit rate : 1 509 KbpsChannel(s) : 6 channelsChannel positions : Front: L C R, Side: L R, LFESampling rate : 48.0 KHzBit depth : 24 bitsCompression mode : LossyStream size : 574 MiB (8%)Title : DTS 5.1 @ 1536 kbps – Многоголосый закадровый (AlexFilm)Language : RussianDefault : NoForced : No
Audio #3ID : 4Format : DTSFormat/Info : Digital Theater SystemsMode : 16Format settings, Endianness : BigCodec ID : A_DTSDuration : 53mn 11sBit rate mode : ConstantBit rate : 1 509 KbpsChannel(s) : 6 channelsChannel positions : Front: L C R, Side: L R, LFESampling rate : 48.0 KHzBit depth : 24 bitsCompression mode : LossyStream size : 574 MiB (8%)Title : DTS 5.1 @ 1536 kbps – Многоголосый закадровый (LostFilm)Language : RussianDefault : NoForced : No
Audio #4ID : 5Format : DTSFormat/Info : Digital Theater SystemsMode : 16Format settings, Endianness : BigCodec ID : A_DTSDuration : 53mn 11sBit rate mode : ConstantBit rate : 1 509 KbpsChannel(s) : 6 channelsChannel positions : Front: L C R, Side: L R, LFESampling rate : 48.0 KHzBit depth : 24 bitsCompression mode : LossyStream size : 574 MiB (8%)Title : DTS 5.1 @ 1536 kbps – Многоголосый закадровый (FoxLife)Language : RussianDefault : NoForced : No
Audio #5ID : 6Format : DTSFormat/Info : Digital Theater SystemsMode : 16Format settings, Endianness : BigCodec ID : A_DTSDuration : 53mn 11sBit rate mode : ConstantBit rate : 1 509 KbpsChannel(s) : 6 channelsChannel positions : Front: L C R, Side: L R, LFESampling rate : 48.0 KHzBit depth : 24 bitsCompression mode : LossyStream size : 574 MiB (8%)Title : DTS 5.1 @ 1536 kbps – English (Original)Language : EnglishDefault : NoForced : No
Text #1ID : 7Format : ASSCodec ID : S_TEXT/ASSCodec ID/Info : Advanced Sub Station AlphaCompression mode : LosslessTitle : ForcedLanguage : RussianDefault : NoForced : No
Text #2ID : 8Format : UTF-8Codec ID : S_TEXT/UTF8Codec ID/Info : UTF-8 Plain TextTitle : 7kingdomsLanguage : RussianDefault : NoForced : No
Text #3ID : 9Format : ASSCodec ID : S_TEXT/ASSCodec ID/Info : Advanced Sub Station AlphaCompression mode : LosslessTitle : Opel & WesterosLanguage : RussianDefault : NoForced : No
Text #4ID : 10Format : UTF-8Codec ID : S_TEXT/UTF8Codec ID/Info : UTF-8 Plain TextTitle : EnglishLanguage : EnglishDefault : NoForced : No
Text #5ID : 11Format : PGSMuxing mode : zlibCodec ID : S_HDMV/PGSCodec ID/Info : Picture based subtitle format used on BDs/HD-DVDsTitle : ForcedLanguage : RussianDefault : YesForced : No
Text #6ID : 12Format : PGSMuxing mode : zlibCodec ID : S_HDMV/PGSCodec ID/Info : Picture based subtitle format used on BDs/HD-DVDsTitle : 7kingdomsLanguage : RussianDefault : NoForced : No
Text #7ID : 13Format : PGSMuxing mode : zlibCodec ID : S_HDMV/PGSCodec ID/Info : Picture based subtitle format used on BDs/HD-DVDsTitle : Opel & WesterosLanguage : RussianDefault : NoForced : No
Menu00:00:00.000 : en:00:00:00.00000:01:54.531 : en:00:01:54.53100:10:16.157 : en:00:10:16.15700:18:15.511 : en:00:18:15.51100:24:27.216 : en:00:24:27.21600:31:39.689 : en:00:31:39.68900:41:03.670 : en:00:41:03.67000:51:21.704 : en:00:51:21.704

Скриншоты


Сэмпл | КиноПоиск | IMDB | MyShows |
Вне форума [Профиль] [ЛС]
Показать сообщения:    
Ответить на тему

Текущее время: Сегодня 22:54

Часовой пояс: GMT + 3



Вы не можете начинать темы
Вы не можете отвечать на сообщения
Вы не можете редактировать свои сообщения
Вы не можете удалять свои сообщения
Вы не можете голосовать в опросах
Вы не можете прикреплять файлы к сообщениям
Вы не можете скачивать файлы